<?xml version="1.0" standalone="no"?><!DOCTYPE svg PUBLIC "-//W3C//DTD SVG 1.1//EN" "http://www.w3.org/Graphics/SVG/1.1/DTD/svg11.dtd" ><svg xmlns="http://www.w3.org/2000/svg"><metadata></metadata><defs><font id="Iosevka Extralight Oblique 1.13.3 (Marisa)" horiz-adv-x="500"><font-face font-family="Iosevka Extralight Oblique" font-weight="200" font-stretch="normal" units-per-em="1000" panose-1="2 0 3 9 0 0 0 0 0 0" ascent="977" descent="-205" x-height="0" bbox="-47 -213 503 759" underline-thickness="50" underline-position="-50" unicode-range="U+0026-007a" /><missing-glyph horiz-adv-x="500" d="M4 0 l129 735 l364 0 l-129 -735 l-364 0 ZM46 36 l292 0 l117 663 l-292 0 l-117 -663 Z" /><glyph glyph-name="" unicode="&amp;" d="M192 -8 q-58 0 -95.5 24 q-37.5 24 -54.5 68 q-22 54 -10 122 q9 51 41 93 q34 46 106 84 q-22 36 -33 64 q-32 78 -19 148 q8 48 35 83 q22 30 55 47 q34 18 78 18 q45 0 75 -19 q30 -19 44 -55 q18 -45 8 -104 q-9 -48 -40 -90 q-35 -47 -110 -86 q-15 -8 -38 -19 q22 -32 52 -69 q55 -69 82 -117 l32 184 l40 0 l-34 -194 q-4 -25 -13 -47 q22 -65 11 -127 l-40 0 q6 37 0 74 q-27 -37 -68 -58 q-45 -24 -104 -24 ZM214 401 q1 0 4 2 l2 1 q18 9 31 15 q67 35 98 76 q26 35 34 76 q8 48 -6 84 q-11 26 -32 39 q-20 13 -50 13 q-32 0 -58 -13 q-25 -14 -42 -37 q-22 -28 -29 -68 q-10 -60 17 -130 q11 -26 31 -58 ZM193 28 q46 0 82 19 q34 18 56 48 q11 15 20 32 q-2 5 -4 9 q-21 54 -95 147 q-30 37 -53 70 q-63 -35 -93 -74 q-27 -37 -35 -79 q-10 -57 8 -101 q13 -34 41.5 -52.5 q28.5 -18.5 72.5 -18.5 Z" /><glyph glyph-name="" unicode="+" d="M194 165 l32 182 l-161 0 l6 36 l162 0 l32 182 l41 0 l-32 -182 l161 0 l-6 -36 l-162 0 l-32 -182 l-41 0 Z" /><glyph glyph-name="" unicode="0" d="M192 -8 q-53 0 -90 23 q-37 25 -55 70 q-25 62 -9 156 l52 295 q13 73 51 123 q30 40 72 62 q42 22 96 22 q54 0 89 -23 q38 -24 56 -70 q25 -62 9 -156 l-52 -295 q-13 -73 -51 -123 q-30 -40 -72.5 -62 q-42.5 -22 -95.5 -22 ZM192 28 q42 0 76 18 q34 18 59 51 q33 44 44 108 l52 295 q1 8 2 15 l-353 -353 q1 -35 12 -63 q15 -36 44 -54 q26 -17 64 -17 ZM76 220 l353 353 q-2 35 -13 63 q-14 36 -43 54 q-26 17 -65 17 q-41 0 -75 -18 q-34 -18 -59 -51 q-33 -44 -44 -108 l-52 -295 q-1 -7 -2 -15 Z" /><glyph glyph-name="" unicode="1" d="M195 0 l122 689 l-186 -102 l-19 32 l213 116 l40 0 l-129 -735 l-41 0 Z" /><glyph glyph-name="" unicode="2" d="M4 0 l0 1 q22 127 73 195 q44 58 156 130 q110 70 150 123 q36 48 45 100 q9 50 -7 89 q-13 33 -41 50 q-29 19 -73 19 q-41 0 -74.5 -17.5 q-33.5 -17.5 -58.5 -50.5 q-23 -30 -34 -68 l-39 9 q14 43 40 79 q31 40 72.5 62 q41.5 22 93.5 22 q60 0 99 -25 q36 -24 52 -65 q20 -48 10 -110 q-11 -61 -52 -115 q-43 -57 -160 -132 q-105 -66 -146 -120 q-38 -51 -59 -140 l323 0 l-6 -36 l-364 0 Z" /><glyph glyph-name="" unicode="3" d="M193 -8 q-66 0 -111 28 q-39 26 -55 67 q-14 33 -9 68 l39 5 l0 -1 q-5 -30 6 -57 q13 -32 43 -52 q35 -22 87 -22 q49 0 87 20 q35 18 59 50 q28 38 36 85 q9 50 -8 93 q-17 42 -54 66 q-40 26 -119 26 l5 27 l2 9 q91 0 137 24 q32 17 55 47 q24 33 31 72 q9 52 -8 93 q-12 32 -39.5 49.5 q-27.5 17.5 -67.5 17.5 q-38 0 -69.5 -16.5 q-31.5 -16.5 -56.5 -49.5 q-23 -31 -36 -71 l-38 10 q14 46 42 81 q29 40 70 61 q39 21 88 21 q56 0 92 -23 q36 -23 52 -65 q21 -51 11 -113 q-9 -47 -36 -83 q-24 -32 -63 -53 q-28 -15 -71 -22 q27 -7 47 -20 q44 -28 64 -78.5 q20 -50.5 10 -109.5 q-10 -55 -43 -99 q-29 -38 -71 -60 q-48 -25 -108 -25 Z" /><glyph glyph-name="" unicode="4" d="M263 0 l46 258 l-268 0 l6 36 l337 441 l50 0 l-78 -441 l63 0 l-6 -36 l-63 0 l-46 -258 l-41 0 ZM91 294 l224 0 l68 384 l-292 -384 Z" /><glyph glyph-name="" unicode="5" d="M191 -8 q-59 0 -98 25 q-37 24 -54 66 q-13 33 -13 72 l38 10 q0 -36 12 -65 q13 -34 42.5 -53 q29.5 -19 72.5 -19 q40 0 74 18 q34 18 60 52 q36 47 49 122 q16 91 -8 151 q-15 37 -44 55 q-24 16 -61 16 q-33 0 -62 -15 q-33 -17 -61 -54 q-17 -23 -29 -49 l-36 16 l69 395 l337 0 l-6 -36 l-296 0 l-50 -281 q24 26 53 41 q38 19 81 19 q51 0 86 -22 q37 -24 57 -71 q27 -70 9 -171 q-14 -83 -55 -137 q-30 -41 -72.5 -63 q-42.5 -22 -94.5 -22 Z" /><glyph glyph-name="" unicode="6" d="M192 -8 q-54 0 -89 23 q-38 24 -56 70 q-25 62 -9 157 q34 193 125 313 q69 91 169 143 q43 23 90 37 l11 -35 q-41 -12 -80 -33 q-93 -48 -157 -133 q-51 -68 -83 -160 q28 37 65 56 q36 19 81 19 q51 0 88 -23 q37 -24 55 -70 q25 -62 9 -157 q-13 -73 -51 -123 q-30 -40 -72.5 -62 q-42.5 -22 -95.5 -22 ZM192 28 q42 0 75 18 q35 17 60 51 q33 44 44 108 q15 83 -6 137 q-15 36 -44 54 q-25 17 -64 17 q-43 0 -77 -18 q-34 -18 -59 -51 q-32 -42 -42 -102 l-1 -5 q-15 -84 7 -138 q14 -36 43 -54 q26 -17 64 -17 Z" /><glyph glyph-name="" unicode="7" d="M84 0 l364 699 l-321 0 l6 36 l364 0 l-6 -36 l-364 -699 l-43 0 Z" /><glyph glyph-name="" unicode="8" d="M192 -8 q-64 0 -104 26 q-36 23 -52 63 q-18 44 -9 100 q9 49 41 91 q37 50 111 88 q16 9 40 20 q-72 62 -92 112.5 q-20 50.5 -12 100.5 q8 43 33 77 q24 31 60 50 q44 23 101 23 q57 0 94 -24 q34 -22 48 -59 q18 -44 8 -99 q-8 -48 -40 -91 q-37 -49 -110 -87 q-10 -6 -22 -12 q81 -67 103 -123 q20 -50 12 -100 q-8 -43 -34 -77 q-24 -33 -63 -54 q-49 -25 -113 -25 ZM192 28 q52 0 92 21 q32 16 51 43 q21 28 27 62 q7 40 -9 82 q-21 52 -103 118 q-31 -14 -49 -23 q-67 -35 -100 -79 q-27 -37 -34 -77 q-8 -43 6 -79 q13 -31 40 -48 q31 -20 79 -20 ZM255 397 q18 8 32 15 q66 35 99 79 q27 36 34 76 q8 43 -6 78 q-12 29 -37 45 q-26 17 -68 17 q-45 0 -80 -18 q-28 -15 -48 -40 q-20 -28 -26 -62 q-7 -41 10 -82 q18 -48 90 -108 Z" /><glyph glyph-name="" unicode="9" d="M188 -8 q-53 0 -89 23 q-38 25 -58 72 q-12 32 -15 68 l36 16 q2 -37 14 -67 q15 -39 46 -59 q27 -17 66 -17 q35 0 65 16 q35 18 64 56 q47 62 65 164 l18 101 q-30 -38 -69 -58.5 q-39 -20.5 -88 -20.5 q-52 0 -89 24 q-37 24 -55 69 q-25 62 -9 157 q13 73 51 123 q30 40 72 62 q42 22 97 22 q56 0 93.5 -24 q37.5 -24 54.5 -68 q23 -55 8 -136 l-45 -258 q-19 -108 -71 -177 q-34 -45 -77 -68 q-39 -20 -85 -20 ZM244 322 q42 0 76.5 18 q34.5 18 58.5 51 q32 42 44 105 l4 25 q12 69 -6 115 q-15 35 -42.5 53 q-27.5 18 -69.5 18 q-42 0 -76 -18 q-34 -18 -59 -51 q-33 -44 -44 -108 l-1 -1 q-14 -82 7 -135 q15 -36 43 -55 q27 -17 65 -17 Z" /><glyph glyph-name="" unicode="a" d="M4 0 l13 74 q35 199 278 661 l40 0 q81 -461 46 -661 l-13 -74 l-41 0 l13 74 q11 64 11 155 l-249 0 q-34 -92 -45 -155 l-13 -74 l-40 0 ZM115 265 l235 0 q-5 164 -44 407 q-127 -243 -191 -407 Z" /><glyph glyph-name="" unicode="b" d="M4 0 l129 735 l156 0 q53 0 89 -23 q34 -22 50 -62 q19 -49 8 -117 q-10 -51 -35 -86 q-25 -32 -61 -51 q-18 -9 -38 -15 q23 -7 41 -19 q39 -25 57 -68 q19 -48 8 -113 q-10 -56 -38.5 -93.5 q-28.5 -37.5 -71.5 -59.5 q-53 -28 -123 -28 l-171 0 ZM240 400 q42 0 74 17 q30 16 50 43 q24 31 32 78 q10 57 -6 98 q-12 30 -37 46 q-27 17 -64 17 l-121 0 l-53 -299 l125 0 ZM50 36 l125 0 q58 0 102 23 q35 19 59 50 q24 32 32 78 q10 57 -7 99 q-14 36 -45 56 q-35 22 -88 22 l-120 0 l-58 -328 Z" /><glyph glyph-name="" unicode="c" d="M205 -8 q-65 0 -107 27 q-39 25 -56 69 q-22 53 -8 128 l61 345 q10 59 42 101 q27 36 67 57 q46 24 104 24 q64 0 106 -27 q37 -24 54 -64 q13 -35 7 -72 l-40 -4 q1 1 1 4 l1 3 q5 28 -6 54 q-12 30 -41 49 q-33 21 -82 21 q-46 0 -83 -19 q-33 -18 -55 -47 q-27 -36 -36 -86 l-61 -345 q-11 -63 7 -107 q13 -35 44 -54 q32 -21 81 -21 q45 0 82 19.5 q37 19.5 64 54.5 q14 19 26 43 l36 -13 q-11 -26 -29 -50 q-32 -43 -77 -66 q-46 -24 -102 -24 Z" /><glyph glyph-name="" unicode="d" d="M4 0 l129 735 l150 0 q59 0 100 -26 q42 -27 62 -79 q29 -71 10 -179 l-37 -209 q-14 -82 -58 -140 q-35 -47 -85 -73 q-55 -29 -122 -29 l-149 0 ZM50 36 l103 0 q55 0 101 24 q43 22 73 63 q39 51 52 125 l37 209 q17 97 -8 159 q-17 42 -50 63 q-31 20 -75 20 l-115 0 l-118 -663 Z" /><glyph glyph-name="" unicode="e" d="M38 0 l129 735 l330 0 l-6 -36 l-289 0 l-51 -284 l235 0 l-6 -36 l-235 0 l-61 -343 l290 0 l-6 -36 l-330 0 Z" /><glyph glyph-name="" unicode="f" d="M38 0 l129 735 l330 0 l-6 -36 l-289 0 l-51 -284 l235 0 l-6 -36 l-235 0 l-67 -379 l-40 0 Z" /><glyph glyph-name="" unicode="g" d="M191 -8 q-57 0 -94.5 24 q-37.5 24 -54.5 68 q-22 54 -8 132 l61 345 q10 59 42 101 q27 36 67 57 q46 24 104 24 q64 0 106 -27 q37 -24 54 -64 q13 -35 7 -72 l-40 -4 q1 1 1 4 l1 3 q5 28 -6 54 q-12 30 -41 49 q-33 21 -82 21 q-46 0 -83 -19 q-33 -18 -55 -47 q-27 -36 -36 -86 l-61 -345 q-11 -66 6 -111 q15 -35 43 -53 q28 -18 70 -18 q42 0 76 18 q32 16 55 46 q27 37 36 88 l31 175 l-135 0 l0 36 l182 0 l-39 -217 q-10 -60 -42 -103 q-28 -36 -67 -57 q-43 -22 -98 -22 Z" /><glyph glyph-name="" unicode="h" d="M4 0 l129 735 l41 0 l-59 -331 l283 0 l59 331 l40 0 l-129 -735 l-41 0 l65 368 l-283 0 l-65 -368 l-40 0 Z" /><glyph glyph-name="" unicode="i" d="M49 0 l0 36 l122 0 l118 663 l-118 0 l0 36 l280 0 l0 -36 l-122 0 l-117 -663 l117 0 l0 -36 l-280 0 Z" /><glyph glyph-name="" unicode="j" d="M172 -8 q-61 0 -99 25 q-36 23 -52 63 q-14 35 -12 75 l39 8 q-2 -36 10 -66 q13 -33 41.5 -51 q28.5 -18 72.5 -18 q41 0 73 17 q34 18 58 50 q32 43 44 106 l88 498 l-153 0 l0 36 l199 0 l-6 -36 l-89 -504 q-13 -71 -50 -121 q-29 -38 -70.5 -60 q-41.5 -22 -93.5 -22 Z" /><glyph glyph-name="" unicode="k" d="M4 0 l129 735 l41 0 l-70 -398 q198 168 296 298 q48 63 55 100 l42 0 q-7 -40 -61 -112 q-60 -79 -152 -170 q112 -338 92 -453 l-41 0 q19 108 -82 422 q-71 -68 -159 -142 l-50 -280 l-40 0 Z" /><glyph glyph-name="" unicode="l" d="M38 0 l129 735 l41 0 l-124 -699 l298 0 l-6 -36 l-338 0 Z" /><glyph glyph-name="" unicode="m" d="M4 0 l26 147 l103 588 l59 0 l45 -441 l202 441 l58 0 l-103 -588 l-26 -147 l-41 0 l26 147 l90 509 l-198 -435 l-41 0 l-45 432 l-89 -506 l-26 -147 l-40 0 Z" /><glyph glyph-name="" unicode="n" d="M4 0 l51 294 l78 441 l59 0 l145 -676 l68 382 l52 294 l40 0 l-52 -294 l-77 -441 l-59 0 l-145 676 l-68 -382 l-52 -294 l-40 0 Z" /><glyph glyph-name="" unicode="o" d="M192 -8 q-58 0 -95.5 24 q-37.5 24 -54.5 68 q-22 54 -8 132 l61 345 q10 58 41 100 q28 37 69 58 q45 24 105 24 q57 0 94.5 -24 q37.5 -24 54.5 -68 q22 -54 8 -132 l-61 -345 q-10 -59 -42 -100 q-27 -37 -68 -58 q-45 -24 -104 -24 ZM193 28 q46 0 82 19 q34 18 56 48 q27 35 36 85 l61 345 q11 67 -7 111 q-13 34 -42 53 q-28 18 -71 18 q-46 0 -82 -19 q-33 -17 -57 -48 q-26 -36 -35 -85 l-61 -345 q-11 -66 6 -111 q15 -35 43 -53 q28 -18 71 -18 Z" /><glyph glyph-name="" unicode="p" d="M21 0 l129 735 l158 0 q58 0 96 -25 q37 -23 54 -67 q22 -54 8 -129 q-10 -60 -41 -101 q-28 -36 -68 -57 q-46 -24 -105 -24 l-132 0 l-59 -332 l-40 0 ZM126 368 l126 0 q47 0 84 19 q33 17 56 48 q26 34 35 85 q11 64 -7 109 q-13 33 -41 52 q-29 18 -71 18 l-123 0 l-59 -331 Z" /><glyph glyph-name="" unicode="q" d="M305 -155 q-56 0 -91 23 q-30 19 -42 50 q-13 32 -7 75 q-40 5 -69 23 q-37 24 -54 68 q-22 54 -8 132 l61 345 q10 58 41 100 q28 37 69 58 q45 24 105 24 q57 0 94.5 -24 q37.5 -24 54.5 -68 q22 -54 8 -132 l-61 -345 q-10 -59 -42 -100 q-27 -37 -68 -58 q-40 -21 -90 -24 q-5 -33 4.5 -57 q9.5 -24 31.5 -38 q24 -16 63 -16 l30 0 l0 -36 l-30 0 ZM193 28 q46 0 82 19 q34 18 56 48 q27 35 36 85 l61 345 q11 67 -7 111 q-13 34 -42 53 q-28 18 -71 18 q-46 0 -82 -19 q-33 -17 -57 -48 q-26 -36 -35 -85 l-61 -345 q-11 -66 6 -111 q15 -35 43 -53 q28 -18 71 -18 Z" /><glyph glyph-name="" unicode="r" d="M4 0 l129 735 l175 0 q58 0 96 -25 q37 -23 54 -67 q22 -54 8 -129 q-10 -60 -41 -101 q-28 -36 -68 -57 q-34 -19 -77 -23 q40 -66 64 -126 q47 -117 32 -207 l-41 0 q15 85 -30 197 q-25 64 -70 135 l-132 0 l-59 -332 l-40 0 ZM109 368 l143 0 q47 0 84 19 q33 17 56 48 q26 34 35 85 q11 64 -7 109 q-13 33 -41 52 q-29 18 -71 18 l-140 0 l-59 -331 Z" /><glyph glyph-name="" unicode="s" d="M190 -8 q-64 0 -106 27 q-36 23 -52 62 q-13 33 -7 69 q0 2 1 5 l40 3 q-1 -2 -2 -5.5 q-1 -3.5 -1 -4.5 q-4 -28 6 -52 q11 -30 39 -48 q32 -20 82 -20 q47 0 84 19 q31 17 52 44 q23 31 29 67 q7 39 -8 77 q-21 52 -108 115 q-97 70 -121 132 q-21 50 -12 101 q8 45 36 82 q26 34 64 54 q46 24 105 24 q64 0 106 -27 q36 -23 52 -62 q13 -33 7 -69 q-1 -3 -1 -5 l-40 -3 q2 6 2 10 q5 27 -5 52 q-12 30 -39 48 q-33 20 -82 20 q-47 0 -84 -19 q-31 -17 -52 -44 q-23 -31 -29 -67 q-7 -39 8 -77 q21 -52 108 -115 q97 -70 121 -132 q20 -50 12 -101 q-9 -45 -36 -82 q-26 -34 -65 -54 q-45 -24 -104 -24 Z" /><glyph glyph-name="" unicode="t" d="M165 0 l124 699 l-162 0 l6 36 l364 0 l-6 -36 l-162 0 l-123 -699 l-41 0 Z" /><glyph glyph-name="" unicode="u" d="M192 -8 q-54 0 -90 23 q-36 23 -52 65 q-23 55 -8 136 l91 519 l41 0 l-93 -525 q-12 -69 6 -115 q14 -33 41 -50 q26 -17 65 -17 q41 0 75 18 q32 16 55 46 q27 37 36 88 l98 555 l40 0 l-99 -561 q-10 -60 -42 -103 q-28 -36 -67 -57 q-43 -22 -97 -22 Z" /><glyph glyph-name="" unicode="v" d="M165 0 q-80 462 -45 662 l13 73 l41 0 l-13 -73 q-33 -185 34 -598 q216 413 249 598 l13 73 l40 0 l-13 -73 q-35 -200 -278 -662 l-41 0 Z" /><glyph glyph-name="" unicode="w" d="M78 0 q-7 384 23 551 l32 184 l41 0 l-33 -184 q-26 -147 -30 -459 l132 349 l41 0 l7 -350 q108 314 133 460 l33 184 l40 0 l-32 -184 q-30 -169 -172 -551 l-40 0 l-8 338 l-127 -338 l-40 0 Z" /><glyph glyph-name="" unicode="x" d="M4 0 l6 37 q15 84 80 171 q14 18 23 28 l114 134 l-66 132 q-10 19 -15 33 q-34 83 -19 163 l6 37 l41 0 l-7 -37 q-13 -76 18 -154 q4 -9 10 -23 l1 -3 l59 -116 l102 120 q12 14 25 30 q56 74 68 146 l7 37 l40 0 l-6 -37 q-15 -84 -80 -171 q-16 -20 -23 -28 l-114 -134 l66 -132 q10 -19 15 -33 q33 -83 19 -163 l-6 -37 l-41 0 l7 37 q13 76 -18 154 q-7 17 -12 26 l-58 116 l-103 -120 q-16 -19 -24 -30 q-56 -74 -68 -146 l-7 -37 l-40 0 Z" /><glyph glyph-name="" unicode="y" d="M165 0 l52 293 l-65 166 q-46 119 -27 232 l8 44 l41 0 l-8 -44 q-19 -109 23 -219 l54 -138 l106 142 q82 111 100 215 l8 44 l40 0 l-8 -44 q-20 -117 -108 -236 l-124 -168 l-51 -287 l-41 0 Z" /><glyph glyph-name="" unicode="z" d="M4 0 l6 36 l434 663 l-317 0 l6 36 l364 0 l-6 -36 l-434 -663 l317 0 l-6 -36 l-364 0 Z" /><glyph glyph-name="" unicode="a" d="M162 -8 q-55 0 -90 22 q-30 20 -43 53 q-15 36 -7 85 q8 39 27 65 q23 31 62 51 q60 31 146 31 l123 0 l8 46 q9 53 -6 90 q-12 30 -39 48 q-30 19 -75 19 q-41 0 -76 -18 q-33 -17 -56 -49 q-16 -21 -26 -46 l-38 11 q11 30 31 56 q29 38 70 60 q42 22 95 22 q61 0 101 -25 q35 -23 51 -63 q19 -46 7 -111 l-59 -339 l-41 0 l16 91 q-3 -5 -7 -10 q-31 -42 -76 -65.5 q-45 -23.5 -98 -23.5 ZM163 28 q48 0 89 21 q39 21 67 58 q35 47 47 114 l8 42 l-117 0 q-75 0 -125 -26 q-31 -17 -50 -41 q-15 -21 -20 -50 q-7 -36 5 -64 q9 -24 31 -38 q25 -16 65 -16 Z" /><glyph glyph-name="" unicode="b" d="M194 -8 q-45 0 -75 19 q-34 22 -51 65 q-4 10 -7 20 l-17 -96 l-40 0 l129 735 l41 0 l-50 -282 q2 2 3 4 q30 39 70 60 q40 21 89 21 q47 0 80 -21 q35 -23 52 -66 q26 -63 9 -162 l-16 -90 q-13 -73 -51 -123 q-30 -40 -72 -62 q-42 -22 -94 -22 ZM193 28 q41 0 75 18 q34 18 59 51 q33 44 44 108 l16 90 q15 83 -7 136 q-14 36 -43 54 q-26 17 -64 17 q-38 0 -70 -16.5 q-32 -16.5 -57 -49.5 q-33 -44 -44 -109 l-16 -90 q-15 -87 7 -141 q13 -35 41 -53 q23 -15 59 -15 Z" /><glyph glyph-name="" unicode="c" d="M207 -8 q-61 0 -101 26 q-40 26 -59 73 q-24 61 -9 150 l16 90 q13 73 51 123 q29 39 71 61 q44 23 97 23 q61 0 101 -26 q36 -23 53 -64 q13 -34 12 -73 l-39 -8 q1 35 -10 64 q-14 34 -42 52 q-30 19 -75 19 q-42 0 -76 -18 q-34 -18 -59 -51 q-33 -43 -45 -108 l-15 -90 q-14 -77 7 -129 q15 -38 46 -58 q31 -20 76 -20 q43 0 78 18 q38 20 66 58 q15 19 27 44 l35 -16 q-12 -25 -29 -47 q-34 -46 -80 -70 q-43 -23 -97 -23 Z" /><glyph glyph-name="" unicode="d" d="M179 -8 q-48 0 -80 21 q-35 22 -53 66 q-25 64 -8 162 l16 90 q13 73 51 123 q29 39 71 62 q43 22 95 22 q45 0 75 -19 q33 -22 51 -65 q4 -10 7 -20 l53 301 l40 0 l-129 -735 l-41 0 l14 78 q-2 -2 -4 -5 q-29 -39 -69 -60 q-40 -21 -89 -21 ZM192 28 q38 0 69 16 q33 17 57 50 q31 41 44 102 l19 108 q12 79 -9 130 q-14 35 -41 53 q-24 15 -59 15 q-41 0 -75.5 -18 q-34.5 -18 -58.5 -51 q-33 -43 -45 -108 l-15 -90 q-15 -82 6 -136 q15 -36 44 -54 q25 -17 64 -17 Z" /><glyph glyph-name="" unicode="e" d="M215 -8 q-65 0 -108 27 q-41 27 -60 75 q-24 60 -9 147 l16 90 q13 73 51 123 q29 40 71.5 62 q42.5 22 96.5 22 q53 0 89 -23 q38 -24 56 -70 q25 -62 9 -156 l-8 -42 l-339 0 l-2 -12 q-14 -75 7 -126 q15 -39 48 -60 q33 -21 82 -21 q46 0 83 20 q48 24 79 75 l36 -16 q-6 -9 -13 -19 q-35 -47 -82 -71.5 q-47 -24.5 -103 -24.5 ZM86 283 l299 0 l2 12 q15 82 -7 136 q-14 36 -43 54 q-26 17 -65 17 q-41 0 -75.5 -18 q-34.5 -18 -58.5 -51 q-33 -43 -45 -108 l-7 -42 Z" /><glyph glyph-name="" unicode="f" d="M121 0 l80 455 l-114 0 l0 36 l121 0 l21 121 q9 50 35 86 q22 28 52 44 q32 17 72 17 q40 0 67 -17 q25 -16 36.5 -44.5 q11.5 -28.5 8.5 -62.5 l-40 -6 q3 28 -6 51 q-9 21 -26 32 q-17 11 -43 11 q-27 0 -49 -11.5 q-22 -11.5 -38 -33.5 q-22 -29 -30 -72 l-20 -115 l185 0 l0 -36 l-192 0 l-80 -455 l-40 0 Z" /><glyph glyph-name="" unicode="g" d="M156 -213 q-75 0 -122 30 q-35 23 -49 59 q-15 36 -7 82 q6 35 24 58 q20 27 54 45 q12 6 26 11 q-21 15 -31 38 q-8 22 -4 44 q3 20 17 38 q13 18 37 31 q8 4 17 7 q-33 22 -48 59 q-16 40 -7 95 q9 47 33 79 q24 32 60 51 q46 24 106 24 l1 0 q34 0 62 -8 l161 0 l-6 -36 l-97 4 q18 -19 29 -44 q16 -42 6 -96 q-8 -46 -32 -78 q-24 -32 -61 -51 q-45 -24 -106 -24 q-34 0 -62 8 q-34 -5 -54 -22 q-17 -14 -21 -35 q-2 -14 3 -28 q7 -17 23 -27 q21 -13 65 -14 q2 0 4 0 l48 0 q62 0 101 -25 q31 -20 44 -52.5 q13 -32.5 6 -77.5 q-7 -39 -28 -66 q-23 -31 -61 -50 q-55 -29 -131 -29 ZM157 -177 q63 0 109 24 q30 16 49 40 q16 22 21 51 q6 32 -3.5 56 q-9.5 24 -32.5 38 q-29 19 -75 19 l-48 0 l-6 0 q-2 0 -4 0 q-51 0 -90 -20 q-26 -14 -41 -34 q-13 -18 -19 -45 q-5 -34 5 -61 q12 -27 38 -45 q37 -23 97 -23 ZM220 241 q48 0 84 19 q29 15 48.5 41 q19.5 26 26.5 63 q7 43 -5 75 q-12 28 -37 44 q-25 16 -62 19 l-10 0 l-3 0 q-48 0 -84 -19 q-30 -15 -49.5 -41 q-19.5 -26 -25.5 -63 q-8 -43 5 -75 q11 -28 37 -45 q29 -18 75 -18 Z" /><glyph glyph-name="" unicode="h" d="M4 0 l129 735 l41 0 l-50 -281 q2 1 3 3 q28 39 68.5 60 q40.5 21 89.5 21 q45 0 75 -19 q34 -22 50 -65 q26 -63 9 -165 l-51 -289 l-41 0 l52 295 q15 85 -6 139 q-15 36 -42 53 q-23 15 -59 15 q-38 0 -70.5 -17 q-32.5 -17 -55.5 -49 q-33 -42 -43 -105 l-1 -1 l-58 -330 l-40 0 Z" /><glyph glyph-name="" unicode="i" d="M306 650 q-16 0 -25 9.5 q-9 9.5 -10 25.5 q1 16 10 25.5 q9 9.5 25 9.5 q16 0 26 -9.5 q10 -9.5 9 -25.5 q1 -16 -9 -25.5 q-10 -9.5 -26 -9.5 ZM14 0 l0 36 l164 0 l82 458 l-146 0 l0 36 l192 0 l-6 -36 l-81 -458 l145 0 l0 -36 l-350 0 Z" /><glyph glyph-name="" unicode="j" d="M363 650 q-16 0 -25.5 9.5 q-9.5 9.5 -9.5 25.5 q0 16 9.5 25.5 q9.5 9.5 25.5 9.5 q16 0 25.5 -9.5 q9.5 -9.5 9.5 -25.5 q0 -16 -9.5 -25.5 q-9.5 -9.5 -25.5 -9.5 ZM86 -213 q-47 0 -78 20 q-30 19 -44 54 q-10 25 -11 54 l38 12 q0 -27 9 -49 q11 -27 33 -41 q22 -14 53 -14 q29 0 52 12 q26 14 46 40 q29 40 40 100 l92 519 l-153 0 l0 36 l199 0 l-6 -36 l-93 -525 q-11 -68 -46 -114 q-25 -34 -59 -51 q-32 -17 -72 -17 Z" /><glyph glyph-name="" unicode="k" d="M4 0 l129 735 l41 0 l-86 -484 q240 147 312 243 q16 21 19 36 l42 0 q-3 -17 -22 -43 q-52 -69 -176 -161 q48 -90 76 -162 q46 -113 37 -164 l-41 0 q9 48 -34 154 q-26 65 -70 149 q-67 -48 -151 -101 l-36 -202 l-40 0 Z" /><glyph glyph-name="" unicode="l" d="M14 0 l0 36 l164 0 l118 663 l-146 0 l0 36 l192 0 l-6 -36 l-117 -663 l145 0 l0 -36 l-350 0 Z" /><glyph glyph-name="" unicode="m" d="M-4 0 l93 530 l41 0 l-7 -39 l2 2 q17 24 39 36 q18 9 39 9 q21 0 36 -10 q19 -12 28 -36 q6 -14 8 -30 q9 17 19 31 q19 25 40 36 q18 9 38 9 q22 0 37 -10 q18 -12 28 -36 q18 -43 5 -116 l-66 -376 l-41 0 l68 383 q10 57 -3 89 q-7 17 -19 24 q-9 6 -22 6 q-12 0 -22 -5 q-14 -8 -27 -24 q-27 -37 -39 -104 l0 -1 l-65 -368 l-41 0 l68 383 q10 57 -3 89 q-7 16 -18 24 q-10 6 -22 6 q-13 0 -23 -5 q-14 -8 -26 -24 q-24 -31 -36 -87 l-69 -386 l-40 0 Z" /><glyph glyph-name="" unicode="n" d="M4 0 l93 530 l41 0 l-13 -76 l2 3 q28 39 68.5 60 q40.5 21 89.5 21 q45 0 75 -19 q34 -22 50 -65 q26 -63 9 -165 l-51 -289 l-41 0 l52 295 q15 85 -6 139 q-15 36 -42 53 q-23 15 -59 15 q-38 0 -70.5 -17 q-32.5 -17 -55.5 -49 q-33 -42 -43 -106 l-59 -330 l-40 0 Z" /><glyph glyph-name="" unicode="o" d="M192 -8 q-53 0 -90 23 q-37 25 -55 70 q-25 62 -9 156 l16 90 q13 73 51 123 q29 40 71.5 62 q42.5 22 96.5 22 q53 0 89 -23 q38 -24 56 -70 q25 -62 9 -156 l-16 -90 q-13 -73 -51 -123 q-30 -40 -72.5 -62 q-42.5 -22 -95.5 -22 ZM192 28 q42 0 76 18 q34 18 59 51 q33 44 44 108 l16 90 q15 82 -7 136 q-14 36 -43 54 q-26 17 -64 17 l-1 0 q-41 0 -75.5 -18 q-34.5 -18 -58.5 -51 q-33 -43 -45 -108 l-15 -90 q-15 -82 6 -136 q15 -36 44 -54 q26 -17 64 -17 Z" /><glyph glyph-name="" unicode="p" d="M-33 -205 l130 735 l41 0 l-14 -76 l3 3 q30 39 70 60 q40 21 89 21 q47 0 80 -21 q35 -23 52 -66 q26 -63 9 -162 l-16 -90 q-13 -73 -51 -123 q-30 -40 -72 -62 q-42 -22 -94 -22 q-45 0 -75 19 q-34 22 -51 65 q-4 9 -7 20 l-53 -301 l-41 0 ZM193 28 q41 0 75 18 q34 18 59 51 q33 44 44 108 l16 90 q15 83 -7 136 q-14 36 -43 54 q-26 17 -64 17 q-38 0 -70 -16.5 q-32 -16.5 -57 -49.5 q-30 -41 -42 -99 l-20 -113 q-12 -78 9 -128 q13 -35 41 -53 q23 -15 59 -15 Z" /><glyph glyph-name="" unicode="q" d="M291 -205 l50 283 q-2 -2 -4 -5 q-29 -39 -69 -60 q-40 -21 -89 -21 q-48 0 -80 21 q-35 22 -53 66 q-25 64 -8 162 l16 90 q13 73 51 123 q29 39 71 62 q43 22 95 22 q45 0 75 -19 q33 -22 51 -65 q4 -10 7 -21 l17 97 l40 0 l-130 -735 l-40 0 ZM192 28 q38 0 69 16 q33 17 57 50 q33 43 45 109 l16 90 q15 87 -7 141 q-14 35 -41 53 q-24 15 -59 15 q-41 0 -75.5 -18 q-34.5 -18 -58.5 -51 q-33 -43 -45 -108 l-15 -90 q-15 -82 6 -136 q15 -36 44 -54 q25 -17 64 -17 Z" /><glyph glyph-name="" unicode="r" d="M64 0 l93 530 l41 0 l-18 -102 q9 17 20 31 q31 41 70 61 q34 18 75 18 q40 0 70 -19 q27 -18 38 -47 q7 -15 7 -32 l-37 -16 q-1 13 -6 24 q-9 24 -31 38 q-25 16 -59 16 q-32 0 -59 -14 q-31 -16 -56 -50 q-35 -45 -51 -116 l-57 -322 l-40 0 Z" /><glyph glyph-name="" unicode="s" d="M191 -8 q-68 0 -110 27 q-37 24 -54 65 q-5 14 -7 26 l39 10 q1 -9 5 -22 q13 -31 42 -49 q32 -21 85 -21 q61 0 102 22 q25 13 40 32 q13 17 16 37 q5 25 -5 48 q-11 29 -42 49 q-23 14 -74 29 q-60 18 -88 36 q-41 26 -57 66 q-13 34 -7 69 q5 30 23 53 q18 25 51 42 q51 27 124 27 q68 0 109 -27 q38 -24 54 -65 q5 -11 8 -26 l-39 -10 q-1 11 -6 22 q-12 31 -41 49 q-32 21 -85 21 q-61 0 -103 -22 q-25 -13 -39 -32 q-13 -17 -16 -37 q-5 -25 5 -48 q11 -29 42 -49 q23 -14 74 -29 q60 -18 88 -36 q40 -26 57 -66 q13 -34 7 -69 q-6 -30 -23 -53 q-19 -25 -52 -42 q-50 -27 -123 -27 Z" /><glyph glyph-name="" unicode="t" d="M286 -8 q-49 0 -83 21 q-32 21 -47 59 q-19 48 -7 118 l54 304 l-124 0 l0 36 l130 0 l36 205 l40 0 l-36 -205 l180 0 l0 -36 l-186 0 l-55 -310 q-10 -59 6 -97 q11 -29 34.5 -44 q23.5 -15 57.5 -15 q32 0 58 14 q28 15 50 44 q19 25 31 58 l38 -12 q-14 -38 -36 -66 q-27 -37 -64 -56 q-34 -18 -77 -18 Z" /><glyph glyph-name="" unicode="u" d="M180 -8 q-45 0 -75 19 q-33 22 -51 65 q-26 64 -8 165 l51 289 l41 0 l-52 -295 q-16 -85 6 -139 q14 -35 41 -53 q24 -15 60 -15 q38 0 70 17 q32 17 56 49 q32 42 43 106 l59 330 l40 0 l-93 -530 l-41 0 l13 76 l-2 -3 q-29 -39 -69 -60 q-40 -21 -89 -21 Z" /><glyph glyph-name="" unicode="v" d="M165 0 q-103 334 -77 477 l9 53 l41 0 l-10 -53 q-23 -133 64 -428 q196 297 219 428 l10 53 l40 0 l-9 -53 q-26 -144 -246 -477 l-41 0 Z" /><glyph glyph-name="" unicode="w" d="M78 0 q-26 277 -4 398 l23 132 l41 0 l-24 -132 q-18 -106 -8 -330 l115 250 l41 0 l25 -251 q92 226 110 331 l24 132 l40 0 l-23 -132 q-22 -122 -145 -398 l-40 0 l-25 244 l-110 -244 l-40 0 Z" /><glyph glyph-name="" unicode="x" d="M4 0 l1 5 q4 27 44 79 q24 33 48 59 l112 124 l-68 123 q-19 37 -31 65 q-18 46 -14 70 l1 5 l41 0 l-1 -5 q-4 -21 12 -60 q8 -22 27 -57 l61 -110 l101 113 q40 44 53 62 q25 33 29 52 l1 5 l40 0 l-1 -5 q-4 -27 -44 -79 q-25 -33 -48 -59 l-112 -124 l67 -123 q20 -37 31 -65 q19 -45 15 -70 l-1 -5 l-41 0 l1 5 q4 21 -12 60 q-10 25 -28 57 l-60 110 l-101 -113 q-40 -44 -53 -62 q-26 -33 -29 -52 l-1 -5 l-40 0 Z" /><glyph glyph-name="" unicode="y" d="M79 -205 l2 7 q9 58 27 92 l57 105 l-65 348 q-18 98 -9 146 l6 37 l41 0 l-7 -37 q-8 -48 8 -139 l55 -300 l164 305 q49 92 56 134 l7 37 l40 0 l-6 -37 q-10 -54 -62 -151 l-249 -465 q-14 -26 -23 -75 l-1 -7 l-41 0 Z" /><glyph glyph-name="" unicode="z" d="M4 0 l6 36 l396 458 l-315 0 l6 36 l364 0 l-6 -36 l-396 -458 l315 0 l-6 -36 l-364 0 Z" /></font>
</defs>
</svg>
