<?xml version="1.0" standalone="no"?><!DOCTYPE svg PUBLIC "-//W3C//DTD SVG 1.1//EN" "http://www.w3.org/Graphics/SVG/1.1/DTD/svg11.dtd" ><svg xmlns="http://www.w3.org/2000/svg"><metadata></metadata><defs><font id="1.000;ADBE;SourceHanSansCN-Normal;ADOBE" horiz-adv-x="1000"><font-face font-family="Source Han Sans CN Normal" font-weight="350" font-stretch="normal" units-per-em="1000" panose-1="2 11 4 0 0 0 0 0 0 0" ascent="880" descent="-120" x-height="0" bbox="-42 -279 976 880" underline-thickness="50" underline-position="-125" unicode-range="U+0022-ff1b" /><missing-glyph horiz-adv-x="1000" d="M100 880 l800 0 l0 -1000 l-800 0 l0 1000 ZM818 830 l-636 0 l318 -409 l318 409 ZM850 -29 l0 818 l-318 -409 l318 -409 ZM818 -70 l-318 409 l-318 -409 l636 0 ZM150 -29 l318 409 l-318 409 l0 -818 Z" /><glyph glyph-name="" unicode="&quot;" d="M92 673 l-2 97 l88 0 l-3 -97 l-15 -180 l-52 0 l-16 180 ZM279 673 l-2 97 l88 0 l-2 -97 l-17 -180 l-51 0 l-16 180 Z" /><glyph glyph-name="" unicode="#" d="M129 230 l-89 0 l0 59 l96 0 l21 170 l-95 0 l0 58 l102 0 l26 207 l54 0 l-25 -207 l152 0 l27 207 l54 0 l-27 -207 l90 0 l0 -58 l-96 0 l-21 -170 l95 0 l0 -59 l-102 0 l-27 -230 l-55 0 l27 230 l-152 0 l-28 -230 l-55 0 l28 230 ZM343 289 l21 170 l-152 0 l-21 -170 l152 0 Z" /><glyph glyph-name="" unicode="%" d="M204 284 q-164 0 -164 232 q0 229 164 229 q164 0 164 -229 q0 -232 -164 -232 ZM204 336 q101 0 101 180 q0 178 -101 178 q-101 0 -101 -178 q0 -180 101 -180 ZM630 745 l57 0 l-405 -758 l-57 0 l405 758 ZM710 -13 q-164 0 -164 232 q0 229 164 229 q164 0 164 -229 q0 -232 -164 -232 ZM710 38 q101 0 101 181 q0 177 -101 177 q-101 0 -101 -177 q0 -181 101 -181 Z" /><glyph glyph-name="" unicode="&amp;" d="M116 193 q0 -62 44 -102 q43 -39 106 -39 q74 0 145 64 q-121 107 -196 228 q-48 -38 -70 -69 q-29 -40 -29 -82 ZM205 576 q0 -61 36 -135 q31 21 49 35 q25 20 41 38 q39 42 39 88 q0 84 -72 84 q-93 0 -93 -110 ZM631 -13 q-76 21 -165 86 q-44 -41 -93 -62 q-54 -24 -116 -24 q-97 0 -158 56 q-62 57 -62 146 q0 67 44 123 q19 23 47 47 q22 19 54 42 q-48 96 -48 174 q0 73 45 121 q47 49 120 49 q138 0 138 -141 q0 -64 -52 -122 q-21 -24 -53 -50 q-13 -11 -30 -23 l-31 -23 q74 -120 190 -216 q71 92 107 222 l75 0 q-45 -157 -128 -264 q76 -55 138 -73 l-22 -68 Z" /><glyph glyph-name="" unicode="&#39;" d="M92 673 l-2 97 l88 0 l-3 -97 l-15 -180 l-52 0 l-16 180 Z" /><glyph glyph-name="" unicode="(" d="M240 -196 q-72 117 -108 235 q-39 129 -39 271 q0 142 39 271 q36 118 108 235 l50 -24 q-129 -213 -129 -482 q0 -269 129 -482 l-50 -24 Z" /><glyph glyph-name="" unicode=")" d="M41 -172 q129 213 129 482 q0 269 -129 482 l50 24 q72 -117 108 -235 q39 -129 39 -271 q0 -142 -39 -271 q-36 -118 -108 -235 l-50 24 Z" /><glyph glyph-name="" unicode="*" d="M112 509 l62 104 l-107 43 l16 47 l112 -29 l10 120 l50 0 l9 -118 l112 27 l15 -47 l-106 -43 l62 -104 l-40 -29 l-77 95 l-78 -95 l-40 29 Z" /><glyph glyph-name="" unicode="+" d="M241 337 l-203 0 l0 61 l203 0 l0 220 l67 0 l0 -220 l203 0 l0 -61 l-203 0 l0 -220 l-67 0 l0 220 Z" /><glyph glyph-name="" unicode="," d="M53 -137 q96 45 97 136 q-3 -1 -6 -1 l-6 0 q-62 0 -62 60 q0 59 63 59 q73 0 73 -101 q0 -139 -138 -201 l-21 48 Z" /><glyph glyph-name="" unicode="-&#x2011;" d="M46 311 l253 0 l0 -64 l-253 0 l0 64 Z" /><glyph glyph-name="" unicode="." d="M134 -13 q-61 0 -61 64 q0 66 61 66 q62 0 62 -66 q0 -64 -62 -64 Z" /><glyph glyph-name="" unicode="/" d="M319 791 l61 0 l-309 -969 l-60 0 l308 969 Z" /><glyph glyph-name="" unicode="0" d="M275 -13 q-225 0 -225 382 q0 376 225 376 q223 0 223 -376 q0 -382 -223 -382 ZM275 53 q144 0 144 316 q0 310 -144 310 q-146 0 -146 -310 q0 -316 146 -316 Z" /><glyph glyph-name="" unicode="1" d="M89 68 l164 0 l0 561 l-129 0 l0 53 q92 16 148 50 l62 0 l0 -664 l149 0 l0 -68 l-394 0 l0 68 Z" /><glyph glyph-name="" unicode="2" d="M45 49 q338 295 338 479 q0 68 -34 108 q-37 43 -105 43 q-43 0 -85 -25 q-37 -22 -71 -62 l-48 46 q48 52 95 78 q54 29 118 29 q97 0 154 -58 q56 -58 56 -156 q0 -105 -80 -226 q-37 -56 -93 -118 q-52 -57 -122 -123 q59 6 120 6 l210 0 l0 -70 l-453 0 l0 49 Z" /><glyph glyph-name="" unicode="3" d="M262 -13 q-78 0 -141 31 q-50 24 -91 69 l42 53 q38 -39 76 -59 q50 -26 109 -26 q68 0 110 38 q43 40 43 104 q0 72 -52 110 q-58 42 -180 42 l0 64 q108 0 160 42 q46 36 46 103 q0 120 -128 122 q-83 -1 -154 -74 l-45 53 q45 40 90 62 q53 24 112 25 q93 -1 149 -48 q59 -49 59 -134 q0 -131 -131 -178 l0 -4 q68 -16 110 -63 q46 -51 46 -124 q0 -95 -67 -153 q-64 -55 -163 -55 Z" /><glyph glyph-name="" unicode="4" d="M340 269 l0 238 q0 58 6 130 l-5 0 q-23 -45 -58 -106 l-177 -262 l234 0 ZM517 204 l-100 0 l0 -204 l-77 0 l0 204 l-321 0 l0 53 l311 475 l87 0 l0 -463 l100 0 l0 -65 Z" /><glyph glyph-name="" unicode="5" d="M259 -13 q-78 0 -140 30 q-26 13 -50 31 q-20 15 -41 36 l41 54 q37 -38 75 -58 q49 -25 108 -25 q68 0 114 49 q47 50 47 131 q0 173 -157 173 q-35 0 -65 -11 q-24 -10 -59 -33 l-45 28 l23 340 l350 0 l0 -70 l-278 0 l-20 -222 q55 31 114 31 q97 0 155 -56 q64 -62 64 -178 q0 -114 -73 -185 q-67 -65 -163 -65 Z" /><glyph glyph-name="" unicode="6" d="M299 52 q55 0 91 48 q37 48 37 123 q0 169 -137 169 q-38 0 -76 -22 q-42 -25 -78 -75 q16 -243 163 -243 ZM446 621 q-48 56 -118 56 q-85 0 -134 -69 q-57 -79 -60 -244 q74 89 169 89 q202 0 202 -230 q0 -103 -61 -170 q-60 -66 -145 -66 q-109 0 -174 91 q-68 96 -68 270 q0 105 22 184 q21 73 60 123 q70 90 186 90 q52 0 96 -21 q39 -18 71 -52 l-46 -51 Z" /><glyph glyph-name="" unicode="7" d="M200 0 q9 215 55 362 q47 152 153 300 l-359 0 l0 70 l453 0 l0 -49 q-122 -158 -169 -318 q-22 -75 -33 -169 q-6 -43 -9 -94 q-4 -45 -6 -102 l-85 0 Z" /><glyph glyph-name="" unicode="8" d="M277 -13 q-101 0 -166 55 q-66 55 -66 140 q0 68 43 125 q35 47 93 79 l0 4 q-44 30 -69 69 q-30 45 -30 99 q0 82 57 134 q55 51 140 51 q92 0 146 -54 q53 -53 53 -139 q0 -52 -33 -105 q-27 -42 -66 -73 l0 -5 q56 -33 86 -72 q38 -51 38 -120 q0 -80 -62 -133 q-64 -55 -164 -55 ZM327 394 q80 68 80 152 q0 58 -34 95 q-36 40 -96 40 q-52 0 -86 -34 q-34 -35 -34 -89 q0 -61 52 -103 q22 -18 55 -34 q24 -12 63 -27 ZM278 48 q65 0 107 37 q40 36 40 92 q0 68 -60 114 q-25 18 -64 37 l-37 16 q-8 4 -19 8 l-20 8 q-106 -67 -106 -172 q0 -60 45 -100 q46 -40 114 -40 Z" /><glyph glyph-name="" unicode="9" d="M258 340 q86 0 158 101 q-13 240 -165 240 q-55 0 -91 -48 q-37 -48 -37 -124 q0 -169 135 -169 ZM104 111 q51 -56 125 -56 q79 0 127 70 q56 81 61 247 q-76 -93 -172 -93 q-200 0 -200 230 q0 103 61 171 q59 65 145 65 q110 0 174 -87 q69 -91 69 -258 q0 -108 -22 -191 q-20 -76 -58 -128 q-70 -94 -183 -94 q-55 0 -100 21 q-40 18 -72 52 l45 51 Z" /><glyph glyph-name="" unicode=":" d="M134 395 q-61 0 -61 64 q0 66 61 66 q62 0 62 -66 q0 -64 -62 -64 ZM134 -13 q-61 0 -61 64 q0 66 61 66 q62 0 62 -66 q0 -64 -62 -64 Z" /><glyph glyph-name="" unicode="&lt;" d="M38 336 l0 67 l473 187 l0 -72 l-241 -89 l-149 -57 l0 -4 l390 -146 l0 -72 l-473 186 Z" /><glyph glyph-name="" unicode="=" d="M38 517 l473 0 l0 -62 l-473 0 l0 62 ZM38 280 l473 0 l0 -61 l-473 0 l0 61 Z" /><glyph glyph-name="" unicode="&gt;" d="M38 222 l241 90 l149 56 l0 4 l-149 57 l-241 89 l0 72 l473 -187 l0 -67 l-473 -186 l0 72 Z" /><glyph glyph-name="" unicode="?" d="M179 216 q-8 60 14 114 q9 22 24 46 q12 18 30 41 l59 78 q27 44 27 84 q0 49 -28 79 q-30 34 -84 34 q-75 0 -132 -65 l-47 43 q37 42 81 64 q50 26 107 26 q84 0 134 -48 q49 -48 49 -128 q0 -49 -28 -98 q-11 -19 -28 -42 q-7 -8 -16 -20 l-16 -20 q-20 -25 -31 -41 q-16 -23 -26 -43 q-23 -51 -17 -104 l-72 0 ZM218 -13 q-62 0 -62 64 q0 66 62 66 q61 0 61 -66 q0 -64 -61 -64 Z" /><glyph glyph-name="" unicode="@" d="M445 -170 q-170 0 -276 102 q-113 108 -113 294 q0 108 37 202 q36 89 101 155 q132 134 322 134 q166 0 265 -101 q97 -100 97 -265 q0 -69 -20 -127 q-18 -53 -52 -92 q-64 -75 -146 -75 q-104 0 -114 84 l-2 0 q-30 -35 -63 -55 q-37 -22 -73 -22 q-58 0 -94 41 q-38 43 -38 116 q0 94 57 172 q63 84 156 84 q59 0 90 -54 l2 0 l11 45 l56 0 l-43 -219 q-34 -135 62 -135 q57 0 102 62 q50 68 50 172 q0 141 -79 225 q-83 88 -230 88 q-157 0 -271 -118 q-57 -58 -88 -136 q-33 -83 -33 -178 q0 -159 95 -253 q91 -90 238 -90 q95 0 182 51 l23 -50 q-97 -57 -211 -57 ZM423 122 q52 0 107 68 l33 181 q-29 48 -75 48 q-63 0 -107 -64 q-39 -59 -39 -129 q0 -104 81 -104 Z" /><glyph glyph-name="" unicode="a" d="M415 296 l-38 119 q-19 56 -39 123 l-37 125 l-4 0 q-17 -62 -36 -125 l-77 -242 l231 0 ZM436 231 l-273 0 l-75 -231 l-83 0 l250 732 l91 0 l251 -732 l-88 0 l-73 231 Z" /><glyph glyph-name="" unicode="b" d="M102 732 l212 0 q117 0 181 -42 q69 -45 69 -137 q0 -123 -109 -159 l0 -4 q152 -29 152 -176 q0 -104 -77 -161 q-73 -53 -200 -53 l-228 0 l0 732 ZM297 418 q185 0 185 125 q0 123 -180 123 l-117 0 l0 -248 l112 0 ZM317 66 q209 0 209 151 q0 137 -209 137 l-132 0 l0 -288 l132 0 Z" /><glyph glyph-name="" unicode="c" d="M374 -13 q-139 0 -225 101 q-90 104 -90 278 q0 173 91 278 q89 101 230 101 q62 0 117 -27 q47 -23 82 -62 l-46 -54 q-63 70 -152 70 q-108 0 -172 -81 q-65 -83 -65 -223 q0 -142 63 -225 q63 -83 171 -83 q98 0 173 84 l46 -52 q-89 -105 -223 -105 Z" /><glyph glyph-name="" unicode="d" d="M102 732 l180 0 q342 0 342 -363 q0 -175 -86 -271 q-88 -98 -253 -98 l-183 0 l0 732 ZM275 68 q131 0 199 80 q65 78 65 221 q0 295 -264 295 l-90 0 l0 -596 l90 0 Z" /><glyph glyph-name="" unicode="e" d="M102 732 l417 0 l0 -70 l-334 0 l0 -241 l281 0 l0 -70 l-281 0 l0 -281 l345 0 l0 -70 l-428 0 l0 732 Z" /><glyph glyph-name="" unicode="f" d="M102 732 l416 0 l0 -70 l-333 0 l0 -258 l282 0 l0 -70 l-282 0 l0 -334 l-83 0 l0 732 Z" /><glyph glyph-name="" unicode="g" d="M385 -13 q-146 0 -235 101 q-91 103 -91 278 q0 174 94 278 q91 101 238 101 q69 0 127 -28 q44 -22 82 -61 l-46 -54 q-31 33 -66 50 q-42 20 -95 20 q-114 0 -181 -81 q-68 -82 -68 -223 q0 -143 65 -225 q66 -83 184 -83 q91 0 139 46 l0 200 l-159 0 l0 69 l236 0 l0 -304 q-81 -84 -224 -84 Z" /><glyph glyph-name="" unicode="h" d="M102 732 l83 0 l0 -310 l353 0 l0 310 l82 0 l0 -732 l-82 0 l0 350 l-353 0 l0 -350 l-83 0 l0 732 Z" /><glyph glyph-name="" unicode="i" d="M102 732 l83 0 l0 -732 l-83 0 l0 732 Z" /><glyph glyph-name="" unicode="j" d="M234 -13 q-133 0 -197 114 l60 42 q46 -83 130 -83 q121 0 121 159 l0 513 l83 0 l0 -521 q0 -100 -46 -158 q-51 -66 -151 -66 Z" /><glyph glyph-name="" unicode="k" d="M102 732 l83 0 l0 -377 l2 0 l317 377 l95 0 l-230 -277 l264 -455 l-93 0 l-224 390 l-131 -154 l0 -236 l-83 0 l0 732 Z" /><glyph glyph-name="" unicode="l" d="M102 732 l83 0 l0 -662 l323 0 l0 -70 l-406 0 l0 732 Z" /><glyph glyph-name="" unicode="m" d="M102 732 l102 0 l144 -400 l53 -156 l5 0 q11 31 26 78 q1 5 3 10 l22 68 l143 400 l102 0 l0 -732 l-77 0 l0 423 q0 40 4 105 l6 107 l-4 0 l-58 -166 l-143 -394 l-57 0 l-144 394 l-58 166 l-4 0 l7 -107 q3 -65 3 -105 l0 -423 l-75 0 l0 732 Z" /><glyph glyph-name="" unicode="n" d="M102 732 l85 0 l277 -474 l79 -150 l5 0 l-7 113 q-4 66 -4 115 l0 396 l79 0 l0 -732 l-86 0 l-275 474 l-80 150 l-5 0 l3 -55 q2 -36 4 -55 q3 -65 3 -113 l0 -401 l-78 0 l0 732 Z" /><glyph glyph-name="" unicode="o" d="M368 -13 q-137 0 -222 103 q-87 105 -87 279 q0 172 87 275 q84 101 222 101 q138 0 223 -101 q87 -102 87 -275 q0 -174 -87 -279 q-85 -103 -223 -103 ZM368 60 q102 0 164 84 q61 84 61 225 q0 140 -61 222 q-61 81 -164 81 q-102 0 -163 -81 q-61 -83 -61 -222 q0 -141 61 -225 q62 -84 163 -84 Z" /><glyph glyph-name="" unicode="p" d="M102 732 l203 0 q131 0 198 -47 q74 -52 74 -165 q0 -111 -74 -169 q-69 -55 -194 -55 l-124 0 l0 -296 l-83 0 l0 732 ZM297 364 q198 0 198 156 q0 80 -51 114 q-47 31 -151 31 l-108 0 l0 -301 l112 0 Z" /><glyph glyph-name="" unicode="q" d="M144 369 q0 -143 61 -228 q61 -85 163 -85 q102 0 164 85 q61 85 61 228 q0 140 -61 222 q-61 81 -164 81 q-102 0 -163 -81 q-61 -83 -61 -222 ZM691 -166 q-39 -15 -101 -15 q-96 0 -166 48 q-66 45 -97 123 q-121 16 -194 116 q-74 103 -74 263 q0 172 87 275 q84 101 222 101 q138 0 223 -101 q87 -102 87 -275 q0 -158 -72 -260 q-71 -100 -190 -118 q50 -102 183 -102 q22 0 43 3 q16 2 33 7 l16 -65 Z" /><glyph glyph-name="" unicode="r" d="M185 384 l128 0 q183 0 183 145 q0 136 -183 136 l-128 0 l0 -281 ZM505 0 l-183 316 l-137 0 l0 -316 l-83 0 l0 732 l224 0 q119 0 182 -45 q71 -51 71 -158 q0 -167 -170 -205 l189 -324 l-93 0 Z" /><glyph glyph-name="" unicode="s" d="M302 -13 q-152 0 -254 109 l50 57 q86 -93 205 -93 q161 0 161 126 q0 53 -36 86 q-15 13 -40 26 q-15 8 -49 23 l-106 47 q-30 13 -52 26 q-28 17 -48 38 q-49 50 -49 122 q0 83 64 137 q64 54 162 54 q128 0 213 -90 l-44 -53 q-73 70 -169 70 q-142 0 -142 -112 q0 -50 40 -83 q16 -12 39 -25 l149 -64 q73 -32 108 -71 q44 -50 44 -125 q0 -88 -66 -146 q-69 -59 -180 -59 Z" /><glyph glyph-name="" unicode="t" d="M255 662 l-223 0 l0 70 l531 0 l0 -70 l-224 0 l0 -662 l-84 0 l0 662 Z" /><glyph glyph-name="" unicode="u" d="M358 -13 q-118 0 -183 68 q-76 78 -76 242 l0 435 l83 0 l0 -436 q0 -127 51 -185 q44 -51 125 -51 q82 0 127 51 q53 59 53 185 l0 436 l79 0 l0 -435 q0 -164 -75 -242 q-66 -68 -184 -68 Z" /><glyph glyph-name="" unicode="v" d="M2 732 l87 0 l175 -584 l20 -62 l4 0 q10 29 19 62 q8 23 18 59 l157 525 l84 0 l-234 -732 l-95 0 l-235 732 Z" /><glyph glyph-name="" unicode="w" d="M27 732 l85 0 l81 -407 q23 -117 45 -237 l4 0 l53 237 l104 407 l77 0 l105 -407 l54 -237 l5 0 l43 237 l80 407 l80 0 l-154 -732 l-98 0 l-117 456 l-36 166 l-5 0 l-9 -42 q-3 -16 -9 -41 l-19 -83 l-114 -456 l-97 0 l-158 732 Z" /><glyph glyph-name="" unicode="x" d="M232 378 l-201 354 l92 0 l162 -299 l5 0 q2 3 4 8 l10 21 q7 16 13 27 q13 27 25 49 l104 194 l86 0 l-201 -358 l215 -374 l-91 0 l-176 322 l-4 0 q-29 -59 -60 -118 l-111 -204 l-87 0 l215 378 Z" /><glyph glyph-name="" unicode="y" d="M220 287 l-220 445 l88 0 l134 -292 l38 -80 l4 0 l173 372 l85 0 l-220 -445 l0 -287 l-82 0 l0 287 Z" /><glyph glyph-name="" unicode="z" d="M51 49 l395 613 l-359 0 l0 70 l461 0 l0 -49 l-394 -613 l398 0 l0 -70 l-501 0 l0 49 Z" /><glyph glyph-name="" unicode="_" d="M13 -81 l531 0 l0 -57 l-531 0 l0 57 Z" /><glyph glyph-name="" unicode="a" d="M217 -13 q-69 0 -112 39 q-45 42 -45 113 q0 164 335 202 q1 64 -22 100 q-29 45 -93 45 q-44 0 -91 -19 q-36 -15 -73 -41 l-33 57 q20 13 40 24 q25 14 50 23 q62 24 120 24 q94 0 141 -61 q42 -55 42 -158 l0 -335 l-67 0 l-7 66 l-3 0 q-43 -36 -85 -56 q-49 -23 -97 -23 ZM239 53 q72 0 156 75 l0 158 q-139 -16 -200 -51 q-56 -34 -56 -91 q0 -91 100 -91 Z" /><glyph glyph-name="" unicode="b" d="M326 -13 q-81 0 -156 69 l-2 0 l-9 -56 l-64 0 l0 796 l81 0 l0 -221 l-4 -99 q42 36 83 55 q47 23 91 23 q104 0 161 -75 q55 -73 55 -200 q0 -134 -71 -215 q-67 -77 -165 -77 ZM314 56 q72 0 117 60 q46 61 46 162 q0 97 -34 149 q-38 58 -116 58 q-68 0 -151 -78 l0 -292 q34 -31 74 -46 q33 -13 64 -13 Z" /><glyph glyph-name="" unicode="c" d="M304 -13 q-110 0 -179 74 q-72 78 -72 208 q0 131 77 210 q72 75 180 75 q49 0 91 -19 q34 -16 67 -46 l-43 -54 q-53 50 -112 50 q-76 0 -126 -60 q-50 -60 -50 -156 q0 -96 48 -155 q48 -59 126 -59 q36 0 72 16 q31 14 59 39 l36 -54 q-77 -69 -174 -69 Z" /><glyph glyph-name="" unicode="d" d="M277 -13 q-103 0 -162 74 q-61 74 -61 208 q0 127 71 208 q67 77 164 77 q45 0 83 -17 q32 -14 72 -47 l-4 94 l0 212 l81 0 l0 -796 l-67 0 l-8 65 l-2 0 q-35 -35 -75 -55 q-45 -23 -92 -23 ZM294 56 q74 0 146 77 l0 292 q-68 60 -138 60 q-70 0 -116 -60 q-47 -61 -47 -155 q0 -214 155 -214 Z" /><glyph glyph-name="" unicode="e" d="M309 -13 q-110 0 -181 75 q-75 78 -75 207 q0 127 74 209 q70 76 167 76 q101 0 157 -68 q56 -67 56 -185 q0 -32 -4 -49 l-369 0 q4 -90 54 -145 q50 -55 131 -55 q72 0 137 44 l30 -54 q-40 -26 -78 -39 q-47 -16 -99 -16 ZM435 311 q0 177 -140 177 q-62 0 -107 -46 q-47 -49 -55 -131 l302 0 Z" /><glyph glyph-name="" unicode="f" d="M329 728 q-31 15 -62 15 q-78 0 -78 -110 l0 -93 l116 0 l0 -67 l-116 0 l0 -473 l-82 0 l0 473 l-74 0 l0 62 l74 5 l0 94 q0 175 153 175 q46 0 87 -18 l-18 -63 Z" /><glyph glyph-name="" unicode="g" d="M275 -251 q-101 0 -161 38 q-62 39 -62 108 q0 71 80 124 l0 4 q-49 30 -49 89 q0 31 20 59 q15 23 40 41 l0 4 q-29 23 -48 59 q-22 41 -22 86 q0 86 59 140 q57 53 141 53 q37 0 75 -14 l187 0 l0 -63 l-114 0 q47 -45 47 -117 q0 -85 -57 -138 q-55 -51 -138 -51 q-45 0 -83 20 q-36 -31 -36 -68 q0 -61 96 -61 l108 0 q186 0 186 -128 q0 -76 -73 -129 q-77 -56 -196 -56 ZM273 227 q50 0 85 37 q36 38 36 97 q0 60 -36 97 q-34 35 -85 35 q-52 0 -86 -35 q-35 -36 -35 -97 q0 -59 36 -97 q35 -37 85 -37 ZM286 -194 q78 0 130 36 q48 34 48 80 q0 71 -113 71 l-99 0 q-31 0 -69 9 q-59 -42 -59 -97 q0 -99 162 -99 Z" /><glyph glyph-name="" unicode="h" d="M95 796 l81 0 l0 -221 l-3 -113 q46 44 82 65 q48 27 99 27 q165 0 165 -211 l0 -343 l-82 0 l0 333 q0 150 -107 150 q-69 0 -154 -88 l0 -395 l-81 0 l0 796 Z" /><glyph glyph-name="" unicode="i" d="M95 540 l81 0 l0 -540 l-81 0 l0 540 ZM136 656 q-59 0 -59 55 q0 56 59 56 q59 0 59 -56 q0 -55 -59 -55 Z" /><glyph glyph-name="" unicode="j" d="M35 -245 q-45 0 -77 14 l16 62 l24 -6 q16 -4 29 -4 q68 0 68 109 l0 610 l81 0 l0 -611 q0 -174 -141 -174 ZM136 656 q-58 0 -58 55 q0 56 58 56 q59 0 59 -56 q0 -55 -59 -55 Z" /><glyph glyph-name="" unicode="k" d="M95 796 l79 0 l0 -551 l3 0 l240 295 l90 0 l-180 -216 l205 -324 l-89 0 l-163 267 l-106 -124 l0 -143 l-79 0 l0 796 Z" /><glyph glyph-name="" unicode="l" d="M183 -13 q-88 0 -88 112 l0 697 l81 0 l0 -703 q0 -38 25 -38 l8 0 l11 2 l12 -63 q-23 -7 -49 -7 Z" /><glyph glyph-name="" unicode="m" d="M95 540 l66 0 l8 -80 l3 0 q39 43 78 67 q46 27 90 27 q115 0 149 -105 q48 51 87 76 q47 29 93 29 q164 0 164 -211 l0 -343 l-82 0 l0 333 q0 150 -105 150 q-64 0 -142 -88 l0 -395 l-81 0 l0 333 q0 150 -106 150 q-65 0 -141 -88 l0 -395 l-81 0 l0 540 Z" /><glyph glyph-name="" unicode="n" d="M95 540 l66 0 l8 -79 l3 0 q45 44 83 66 q48 27 99 27 q165 0 165 -211 l0 -343 l-82 0 l0 333 q0 150 -107 150 q-69 0 -154 -88 l0 -395 l-81 0 l0 540 Z" /><glyph glyph-name="" unicode="o" d="M301 -13 q-103 0 -173 74 q-75 79 -75 208 q0 131 75 210 q69 75 173 75 q104 0 174 -75 q75 -79 75 -210 q0 -129 -75 -208 q-70 -74 -174 -74 ZM301 55 q73 0 119 59 q46 59 46 155 q0 96 -46 156 q-46 60 -119 60 q-73 0 -118 -60 q-46 -59 -46 -156 q0 -96 46 -155 q45 -59 118 -59 Z" /><glyph glyph-name="" unicode="p" d="M95 540 l66 0 l8 -63 l3 0 q43 35 82 54 q49 23 92 23 q104 0 161 -75 q55 -73 55 -200 q0 -134 -71 -215 q-67 -77 -165 -77 q-72 0 -152 63 l2 -95 l0 -187 l-81 0 l0 772 ZM314 56 q72 0 117 60 q46 61 46 162 q0 97 -34 149 q-38 58 -116 58 q-67 0 -151 -78 l0 -292 q36 -31 74 -46 q33 -13 64 -13 Z" /><glyph glyph-name="" unicode="q" d="M440 -36 l4 101 q-37 -36 -76 -55 q-45 -23 -91 -23 q-103 0 -162 74 q-61 74 -61 208 q0 127 71 208 q67 77 164 77 q46 0 84 -17 q33 -15 72 -48 l3 0 l8 51 l65 0 l0 -772 l-81 0 l0 196 ZM294 56 q74 0 146 77 l0 292 q-68 60 -138 60 q-70 0 -116 -60 q-47 -61 -47 -155 q0 -214 155 -214 Z" /><glyph glyph-name="" unicode="r" d="M95 540 l66 0 l8 -99 l3 0 q61 113 153 113 q33 0 57 -12 l-16 -71 q-27 9 -51 9 q-38 0 -73 -29 q-40 -33 -66 -99 l0 -352 l-81 0 l0 540 Z" /><glyph glyph-name="" unicode="s" d="M233 -13 q-55 0 -110 21 q-51 20 -91 53 l41 55 q39 -32 74 -47 q41 -18 89 -18 q112 0 112 90 q0 39 -40 67 q-16 11 -41 21 q-16 8 -45 18 q-36 13 -58 23 q-31 15 -52 31 q-53 41 -53 102 q0 65 48 107 q50 44 135 44 q45 0 91 -18 q40 -15 73 -42 l-39 -53 q-31 23 -58 34 q-33 14 -67 14 q-105 0 -105 -82 q0 -36 38 -60 q15 -10 39 -20 l60 -23 q9 -3 15 -6 l29 -12 q33 -15 54 -31 q54 -42 54 -110 q0 -68 -50 -111 q-53 -47 -143 -47 Z" /><glyph glyph-name="" unicode="t" d="M259 -13 q-81 0 -117 48 q-32 43 -32 128 l0 310 l-82 0 l0 62 l85 5 l9 153 l69 0 l0 -153 l149 0 l0 -67 l-149 0 l0 -313 q0 -106 85 -106 q27 0 63 14 l16 -61 q-27 -9 -48 -14 q-27 -6 -48 -6 Z" /><glyph glyph-name="" unicode="u" d="M251 -13 q-164 0 -164 210 l0 343 l81 0 l0 -333 q0 -149 107 -149 q74 0 152 95 l0 387 l81 0 l0 -540 l-67 0 l-7 86 l-3 0 q-42 -48 -81 -72 q-46 -27 -99 -27 Z" /><glyph glyph-name="" unicode="v" d="M13 540 l85 0 l107 -314 q11 -37 25 -80 q11 -35 26 -79 l4 0 l51 159 l107 314 l80 0 l-193 -540 l-95 0 l-197 540 Z" /><glyph glyph-name="" unicode="w" d="M27 540 l83 0 l85 -321 l33 -149 l4 0 l38 149 l87 321 l82 0 l88 -321 l38 -149 l4 0 l35 149 l83 321 l78 0 l-148 -540 l-99 0 l-82 301 q-9 32 -20 77 l-6 29 l-2 5 q0 4 -1 5 q-5 25 -9 40 l-5 0 l-18 -80 q-10 -43 -21 -77 l-79 -300 l-96 0 l-152 540 Z" /><glyph glyph-name="" unicode="x" d="M194 282 l-165 258 l88 0 l131 -213 l4 0 l121 213 l84 0 l-164 -266 l178 -274 l-89 0 l-83 131 q-26 46 -59 98 l-5 0 l-134 -229 l-86 0 l179 282 Z" /><glyph glyph-name="" unicode="y" d="M96 -236 q-35 0 -62 11 l17 66 q22 -8 42 -8 q44 0 77 35 q30 31 49 87 l12 42 l-218 543 l85 0 l115 -309 q6 -15 13 -37 l41 -115 l5 0 l23 77 q14 48 23 75 l101 309 l80 0 l-206 -590 q-30 -87 -73 -132 q-51 -54 -124 -54 Z" /><glyph glyph-name="" unicode="z" d="M34 44 l292 429 l-260 0 l0 67 l364 0 l0 -43 l-293 -430 l302 0 l0 -67 l-405 0 l0 44 Z" /><glyph glyph-name="" unicode="{" d="M253 -169 q-68 0 -97 30 q-32 33 -32 116 q0 27 2 58 l3 54 q3 35 3 52 q2 29 2 54 q0 39 -19 61 q-24 27 -77 28 l0 52 q52 1 77 28 q19 21 19 58 q0 26 -2 55 q0 18 -3 54 l-3 53 q-2 31 -2 58 q0 83 32 117 q29 30 97 30 l46 0 l0 -47 l-30 0 q-78 0 -78 -105 q0 -23 1 -50 q0 -16 2 -49 l2 -51 q1 -29 1 -55 q0 -102 -64 -120 l0 -4 q64 -19 64 -121 q0 -25 -1 -54 l-2 -51 q-2 -34 -2 -49 q-1 -27 -1 -50 q0 -105 78 -105 l30 0 l0 -47 l-46 0 Z" /><glyph glyph-name="" unicode="|" d="M103 836 l58 0 l0 -1115 l-58 0 l0 1115 Z" /><glyph glyph-name="" unicode="}" d="M32 -122 l30 0 q78 0 78 105 q0 23 -1 50 q0 15 -2 49 l-2 51 q-1 29 -1 54 q0 102 64 121 l0 4 q-64 18 -64 120 q0 26 1 55 l2 51 q2 33 2 49 q1 27 1 50 q0 105 -78 105 l-30 0 l0 47 l46 0 q68 0 97 -30 q32 -34 32 -117 q0 -27 -2 -58 l-3 -53 q-3 -36 -3 -54 q-2 -29 -2 -55 q0 -37 20 -58 q24 -27 76 -28 l0 -52 q-53 -1 -76 -28 q-20 -22 -20 -61 q0 -25 2 -54 q0 -17 3 -52 l3 -54 q2 -31 2 -58 q0 -83 -32 -116 q-29 -30 -97 -30 l-46 0 l0 47 Z" /><glyph glyph-name="" unicode="©" d="M414 -12 q-149 0 -252 101 q-107 105 -107 271 q0 165 107 269 q102 99 252 99 q150 0 253 -100 q107 -104 107 -268 q0 -166 -107 -271 q-103 -101 -253 -101 ZM414 31 q130 0 219 91 q92 93 92 238 q0 143 -92 236 q-89 89 -219 89 q-129 0 -218 -89 q-92 -93 -92 -236 q0 -145 92 -238 q89 -91 218 -91 ZM422 139 q-86 0 -142 59 q-58 61 -58 162 q0 94 62 154 q58 56 142 56 q43 0 79 -18 q29 -15 59 -45 l-35 -40 q-49 46 -100 46 q-63 0 -101 -43 q-39 -42 -39 -110 q0 -164 136 -164 q35 0 65 15 q24 11 53 36 l30 -44 q-34 -31 -65 -45 q-39 -19 -86 -19 Z" /><glyph glyph-name="" unicode="·" d="M272 297 q-61 0 -61 64 q0 66 61 66 q62 0 62 -66 q0 -64 -62 -64 Z" /><glyph glyph-name="" unicode="&#x3001;" d="M276 -54 q-99 124 -222 224 l58 51 q52 -42 116 -105 q59 -60 109 -118 l-61 -52 Z" /><glyph glyph-name="" unicode="&#x3002;" d="M194 243 q63 0 107 -44 q44 -44 44 -106 q0 -63 -44 -107 q-44 -44 -107 -44 q-62 0 -106 44 q-44 44 -44 107 q0 62 44 106 q44 44 106 44 ZM194 -11 q44 0 74 30 q30 31 30 74 q0 42 -30 73 q-31 30 -74 30 q-42 0 -72 -30 q-31 -31 -31 -73 q0 -43 31 -74 q30 -30 72 -30 Z" /><glyph glyph-name="" unicode="&#x2f00;&#x4e00;" d="M953 425 l0 -72 l-905 0 l0 72 l905 0 Z" /><glyph glyph-name="" unicode="&#x4e03;" d="M765 26 q48 0 64 35 q14 32 21 143 q31 -21 68 -31 q-9 -125 -36 -166 q-31 -47 -117 -47 l-268 0 q-90 0 -122 29 q-33 30 -33 113 l0 313 l-277 -44 l-12 65 l289 47 l0 336 l71 0 l0 -325 l526 86 l10 -67 l-536 -86 l0 -327 q0 -45 16 -59 q17 -15 70 -15 l266 0 Z" /><glyph glyph-name="" unicode="&#x4e07;" d="M410 694 q-2 -61 -4 -104 q-4 -59 -9 -107 l445 0 l-1 -33 q-14 -248 -29 -349 q-16 -106 -45 -137 q-27 -30 -82 -33 q-56 -5 -175 4 q-2 34 -23 65 q48 -5 105 -7 q20 -1 41 -1 l28 0 q35 0 47 12 q23 21 38 115 q14 94 25 300 l-382 0 q-12 -79 -31 -146 q-23 -74 -56 -135 q-37 -68 -88 -120 q-55 -56 -127 -96 q-16 28 -48 50 q100 53 164 139 q58 76 90 181 q14 46 24 99 q8 48 14 102 q4 46 7 102 l3 99 l-275 0 l0 65 l869 0 l0 -65 l-525 0 Z" /><glyph glyph-name="" unicode="&#x4e09;" d="M876 738 l0 -67 l-750 0 l0 67 l750 0 ZM798 413 l0 -67 l-610 0 l0 67 l610 0 ZM928 67 l0 -67 l-860 0 l0 67 l860 0 Z" /><glyph glyph-name="" unicode="&#x4e0a;" d="M943 38 l0 -66 l-887 0 l0 66 l376 0 l0 781 l70 0 l0 -310 l378 0 l0 -67 l-378 0 l0 -404 l441 0 Z" /><glyph glyph-name="" unicode="&#x4e0b;" d="M515 695 l0 -178 l11 13 q92 -45 194 -104 q105 -62 164 -106 l-46 -61 q-50 41 -144 100 q-88 54 -179 102 l0 -533 l-70 0 l0 767 l-386 0 l0 67 l883 0 l0 -67 l-427 0 Z" /><glyph glyph-name="" unicode="&#x4e0d;&#xf967;" d="M608 697 q-15 -26 -35 -56 q-14 -22 -38 -57 l0 -658 l-71 0 l0 569 q-79 -91 -170 -166 q-96 -78 -199 -133 q-20 29 -46 57 q147 73 275 195 q122 116 200 249 l-451 0 l0 67 l855 0 l0 -67 l-320 0 ZM610 525 q97 -62 189 -131 q103 -78 155 -132 l-52 -50 q-52 55 -152 134 q-97 76 -189 136 l49 43 Z" /><glyph glyph-name="" unicode="&#x4e0e;" d="M681 170 l-619 0 l0 64 l619 0 l0 -64 ZM881 411 q-21 -212 -45 -312 q-23 -97 -57 -130 q-29 -29 -89 -33 q-59 -2 -176 5 q-4 37 -25 66 q51 -5 110 -7 l72 -1 q39 0 52 12 q28 23 49 108 q20 87 39 262 l-588 0 l-55 1 q23 80 51 206 q27 121 45 225 l66 -7 q-10 -61 -21 -111 l562 0 l0 -64 l-576 0 l-21 -97 q-11 -52 -21 -90 l631 0 l-3 -33 Z" /><glyph glyph-name="" unicode="&#x4e13;" d="M385 468 q-8 -26 -20 -60 l-19 -56 l438 0 l12 5 l50 -31 l-127 -126 q-32 -32 -71 -69 l-71 -69 q108 -47 166 -81 l-40 -57 q-71 44 -200 99 q-127 53 -242 88 l38 49 q103 -30 212 -72 q58 54 108 103 l100 99 l-468 0 q14 34 31 83 q14 37 34 95 l-256 0 l0 64 l277 0 q12 34 21 62 l20 63 l-238 0 l0 63 l257 0 l18 59 l15 55 l70 0 l-34 -114 l386 0 l0 -63 l-406 0 q-6 -21 -10 -31 q-5 -18 -10 -32 l-20 -62 l517 0 l0 -64 l-538 0 Z" /><glyph glyph-name="" unicode="&#x4e14;" d="M282 33 l445 0 l0 184 l-445 0 l0 -184 ZM282 712 l0 -181 l445 0 l0 181 l-445 0 ZM727 468 l-445 0 l0 -187 l445 0 l0 187 ZM944 33 l0 -65 l-886 0 l0 65 l158 0 l0 743 l579 0 l0 -743 l149 0 Z" /><glyph glyph-name="" unicode="&#x4e16;" d="M527 520 l0 -256 l199 0 l0 256 l-199 0 ZM461 202 l0 318 l-189 0 l0 -464 l646 0 l0 -64 l-716 0 l0 528 l-147 0 l0 64 l147 0 l0 224 l70 0 l0 -224 l189 0 l0 247 l66 0 l0 -247 l199 0 l0 236 l69 0 l0 -236 l152 0 l0 -64 l-152 0 l0 -318 l-334 0 Z" /><glyph glyph-name="" unicode="&#x4e1a;" d="M916 572 q-83 -195 -174 -342 l-54 30 q44 71 90 164 q49 100 78 177 l60 -29 ZM226 239 q-17 62 -58 164 q-39 95 -80 182 l61 19 q43 -86 82 -179 q43 -99 62 -162 l-67 -24 ZM938 43 l0 -66 l-873 0 l0 66 l282 0 l0 780 l67 0 l0 -780 l174 0 l0 779 l67 0 l0 -779 l283 0 Z" /><glyph glyph-name="" unicode="&#x4e2a;" d="M466 547 l68 0 l0 -622 l-68 0 l0 622 ZM566 808 q-8 -15 -26 -43 q86 -107 197 -191 q51 -39 110 -74 q54 -33 117 -64 q-31 -26 -48 -59 q-61 33 -112 66 q-56 36 -106 75 q-106 84 -197 195 q-166 -216 -411 -334 q-26 39 -49 58 q143 64 266 168 q127 107 201 230 l58 -27 Z" /><glyph glyph-name="" unicode="&#x4e2d;" d="M829 318 l0 274 l-297 0 l0 -274 l297 0 ZM463 318 l0 274 l-296 0 l0 -274 l296 0 ZM897 657 l0 -463 l-68 0 l0 58 l-297 0 l0 -326 l-69 0 l0 326 l-296 0 l0 -63 l-66 0 l0 468 l362 0 l0 179 l69 0 l0 -179 l365 0 Z" /><glyph glyph-name="" unicode="&#x4e30;" d="M945 166 l-410 0 l0 -240 l-70 0 l0 240 l-408 0 l0 67 l408 0 l0 170 l-321 0 l0 63 l321 0 l0 157 l-371 0 l0 66 l371 0 l0 147 l70 0 l0 -147 l370 0 l0 -66 l-370 0 l0 -157 l325 0 l0 -63 l-325 0 l0 -170 l410 0 l0 -67 Z" /><glyph glyph-name="" unicode="&#x4e34;" d="M92 713 l62 0 l0 -654 l-62 0 l0 654 ZM256 822 l65 0 l0 -891 l-65 0 l0 891 ZM491 314 l0 -273 l151 0 l0 273 l-151 0 ZM852 314 l-148 0 l0 -273 l148 0 l0 273 ZM427 378 l493 0 l0 -449 l-68 0 l0 50 l-361 0 l0 -54 l-64 0 l0 453 ZM750 418 q-26 29 -76 75 q-47 43 -93 80 l44 39 q49 -38 94 -77 q51 -43 77 -70 l-46 -47 ZM948 717 l0 -64 l-418 0 q-56 -125 -122 -201 q-30 23 -58 37 q58 61 105 156 q44 89 72 195 l65 -13 q-19 -66 -36 -110 l392 0 Z" /><glyph glyph-name="" unicode="&#x4e3a;" d="M276 632 q-34 68 -107 150 l57 26 q73 -79 110 -147 l-60 -29 ZM896 595 l0 -14 q-1 -7 -1 -12 l0 -9 q-12 -306 -26 -427 q-15 -127 -44 -161 q-27 -33 -78 -37 q-24 -1 -69 0 q-39 0 -89 3 q-4 39 -23 69 q43 -5 94 -6 q17 -1 36 -1 l25 0 q31 0 43 15 q23 22 37 137 q13 115 24 377 l-351 0 q-9 -80 -30 -150 q-24 -82 -63 -154 q-44 -80 -108 -149 q-69 -76 -163 -138 q-20 27 -52 48 q88 58 154 127 q61 63 103 137 q38 66 61 141 q20 65 30 138 l-319 0 l0 66 l326 0 q4 59 4 124 l0 115 l67 0 l0 -116 q0 -66 -4 -123 l416 0 ZM641 176 q-19 39 -59 96 q-39 55 -79 102 l53 27 q42 -46 82 -99 q41 -55 61 -93 l-58 -33 Z" /><glyph glyph-name="" unicode="&#x4e3b;" d="M945 23 l0 -65 l-885 0 l0 65 l405 0 l0 255 l-314 0 l0 64 l314 0 l0 228 l-358 0 l0 64 l448 0 q-28 34 -79 80 q-48 43 -96 80 l54 37 q51 -37 101 -81 q53 -48 81 -82 l-47 -34 l326 0 l0 -64 l-360 0 l0 -228 l319 0 l0 -64 l-319 0 l0 -255 l410 0 Z" /><glyph glyph-name="" unicode="&#x4e3d;" d="M451 9 q0 -51 -32 -66 q-29 -14 -121 -12 q-5 30 -20 63 q27 -1 57 -1 l34 0 q16 0 16 16 l0 530 l-209 0 l0 -614 l-63 0 l0 676 l338 0 l0 -592 ZM299 200 q-13 38 -41 97 q-25 51 -54 104 l52 19 q65 -112 99 -196 l-56 -24 ZM896 7 q0 -52 -33 -67 q-26 -12 -128 -12 q-3 27 -19 63 q28 -1 61 -1 l35 0 q18 1 18 17 l0 532 l-224 0 l0 -614 l-63 0 l0 676 l353 0 l0 -594 ZM740 194 q-14 36 -45 94 q-24 47 -55 102 l50 20 q31 -52 58 -100 q30 -57 45 -92 l-53 -24 ZM943 773 l0 -64 l-886 0 l0 64 l886 0 Z" /><glyph glyph-name="" unicode="&#x4e49;" d="M517 575 q-12 45 -42 117 q-25 58 -56 124 l57 23 q30 -59 57 -123 q30 -68 44 -115 l-60 -26 ZM860 740 q-57 -159 -129 -283 q-78 -135 -181 -238 q181 -163 407 -235 q-21 -19 -46 -59 q-232 78 -411 246 q-172 -156 -423 -245 q-11 28 -36 56 q244 83 413 235 q-189 198 -303 488 l60 18 q106 -271 292 -459 q98 99 172 229 q69 120 118 269 l67 -22 Z" /><glyph glyph-name="" unicode="&#x4e4b;" d="M525 642 q-38 77 -105 167 l58 30 q32 -42 61 -85 q32 -48 46 -78 l-60 -34 ZM860 606 q-208 -308 -553 -517 l32 -22 q44 -28 110 -38 q53 -9 146 -9 q85 0 190 5 q96 5 172 12 q-17 -42 -19 -71 q-165 -11 -345 -11 q-96 0 -155 11 q-67 12 -114 43 l-53 38 q-27 20 -40 20 q-22 0 -58 -37 q-26 -27 -70 -86 l-50 60 q55 59 96 89 q48 36 83 36 l15 -2 q136 79 276 204 q138 123 224 240 l-642 0 l0 65 l691 0 l14 4 l50 -34 Z" /><glyph glyph-name="" unicode="&#x4e5d;" d="M854 13 q22 0 29 31 q7 30 10 135 q25 -20 62 -30 q-5 -118 -23 -157 q-20 -43 -74 -43 l-116 0 q-57 0 -77 22 q-20 22 -20 84 l0 488 l-230 0 q-9 -101 -26 -181 q-20 -94 -53 -170 q-38 -84 -93 -148 q-60 -71 -142 -120 q-22 30 -53 51 q79 44 136 108 q52 59 87 136 q32 69 50 156 q16 75 23 168 l-265 0 l0 65 l269 0 q3 50 4 113 l0 111 l72 0 l0 -41 q-1 -2 -1 -4 l0 -66 q-1 -65 -4 -113 l295 0 l0 -553 q0 -42 36 -42 l104 0 Z" /><glyph glyph-name="" unicode="&#x4e60;" d="M718 267 q-74 -26 -158 -55 q-75 -27 -156 -54 q-73 -26 -146 -51 l-127 -43 l-24 67 q104 32 272 87 q156 52 326 111 l13 -62 ZM279 608 q75 -50 146 -103 q81 -61 122 -99 l-46 -51 q-41 40 -120 102 q-74 58 -146 108 l44 43 ZM882 721 q-1 -104 -3 -181 q-1 -85 -3 -150 q-3 -138 -9 -219 q-10 -158 -36 -194 q-28 -39 -80 -43 q-26 -3 -71 -2 q-40 1 -85 4 q-2 33 -22 63 q45 -3 94 -4 q18 -1 36 -1 l25 0 q28 0 40 16 q23 25 33 180 q5 77 8 205 q2 60 3 138 q2 70 3 163 l-693 0 l0 64 l760 0 l0 -39 Z" /><glyph glyph-name="" unicode="&#x4e86;" d="M887 722 q-139 -153 -350 -267 l0 -441 q0 -63 -49 -78 q-26 -8 -78 -10 l-56 -2 l-70 0 q-6 28 -28 67 q57 -2 116 -2 q46 0 69 1 q27 1 27 24 l0 474 q155 76 288 202 l-656 0 l0 65 l720 0 l15 4 l52 -37 Z" /><glyph glyph-name="" unicode="&#x4e8b;" d="M780 209 l-249 0 l0 -80 l249 0 l0 80 ZM531 263 l249 0 l0 75 l-249 0 l0 -75 ZM464 511 l0 76 l-225 0 l0 -76 l225 0 ZM531 587 l0 -76 l233 0 l0 76 l-233 0 ZM950 209 l-103 0 l0 -177 l-67 0 l0 45 l-249 0 l0 -74 q0 -57 -42 -71 q-22 -7 -63 -9 q-32 -2 -103 -2 q-4 21 -24 57 q42 -1 87 -1 q37 0 53 1 q25 1 25 25 l0 74 l-327 0 l0 52 l327 0 l0 80 l-412 0 l0 54 l412 0 l0 75 l-318 0 l0 51 l318 0 l0 74 l-289 0 l0 172 l289 0 l0 62 l-394 0 l0 56 l394 0 l0 82 l67 0 l0 -82 l401 0 l0 -56 l-401 0 l0 -62 l301 0 l0 -172 l-301 0 l0 -74 l316 0 l0 -126 l103 0 l0 -54 Z" /><glyph glyph-name="" unicode="&#x2f06;&#x4e8c;" d="M857 692 l0 -71 l-713 0 l0 71 l713 0 ZM941 100 l0 -73 l-881 0 l0 73 l881 0 Z" /><glyph glyph-name="" unicode="&#x4e8e;" d="M943 370 l-400 0 l0 -345 q0 -68 -50 -83 q-25 -8 -76 -11 q-40 -2 -125 -1 q-8 31 -29 69 q56 -2 114 -2 q46 0 68 1 q29 1 29 27 l0 345 l-416 0 l0 66 l416 0 l0 261 l-347 0 l0 66 l746 0 l0 -66 l-330 0 l0 -261 l400 0 l0 -66 Z" /><glyph glyph-name="" unicode="&#x4e91;" d="M838 686 l-670 0 l0 67 l670 0 l0 -67 ZM467 404 q-110 -208 -233 -356 l521 41 q-68 105 -132 190 l60 31 q69 -91 131 -183 q69 -103 103 -169 l-61 -37 q-27 50 -62 108 l-519 -47 q-64 -7 -91 -11 q-24 -5 -39 -11 q-10 41 -26 74 q24 6 76 74 q28 34 77 112 q28 43 53 87 q28 50 51 97 l-316 0 l0 68 l881 0 l0 -68 l-474 0 Z" /><glyph glyph-name="" unicode="&#x4e92;" d="M666 257 q2 13 4 31 l11 89 q8 65 12 105 l-359 0 l-45 -225 l377 0 ZM947 27 l0 -65 l-890 0 l0 65 l576 0 l13 81 q7 47 12 86 l-456 0 q24 96 54 246 q29 145 50 271 l-216 0 l0 64 l827 0 l0 -64 l-540 0 l-31 -166 l360 0 l12 3 l49 -6 q-10 -99 -28 -246 q-19 -143 -38 -269 l246 0 Z" /><glyph glyph-name="" unicode="&#x4e94;" d="M438 383 q-14 -88 -31 -180 l-29 -157 l291 0 l18 174 q9 95 14 163 l-263 0 ZM943 46 l0 -66 l-883 0 l0 66 l246 0 q30 137 62 337 l-189 0 l0 65 l200 0 l18 115 q9 62 15 109 l-288 0 l0 66 l746 0 l0 -66 l-387 0 l-34 -224 l264 0 l11 3 l50 -5 q-10 -180 -37 -400 l206 0 Z" /><glyph glyph-name="" unicode="&#x4e95;" d="M646 317 l0 243 l-286 0 l0 -118 q0 -35 -1 -63 q-1 -33 -4 -62 l291 0 ZM937 250 l-222 0 l0 -326 l-69 0 l0 326 l-299 0 q-18 -104 -65 -182 q-54 -89 -152 -154 q-17 24 -55 48 q89 56 139 132 q44 67 62 156 l-211 0 l0 67 l221 0 q3 29 4 62 q1 28 1 64 l0 117 l-194 0 l0 67 l194 0 l0 204 l69 0 l0 -204 l286 0 l0 205 l69 0 l0 -205 l199 0 l0 -67 l-199 0 l0 -243 l222 0 l0 -67 Z" /><glyph glyph-name="" unicode="&#x4e9a;" d="M408 49 l169 0 l0 660 l-169 0 l0 -660 ZM950 49 l0 -64 l-900 0 l0 64 l288 0 l0 660 l-263 0 l0 65 l853 0 l0 -65 l-281 0 l0 -660 l303 0 ZM146 560 q42 -83 81 -172 q41 -96 60 -155 l-62 -25 q-18 60 -58 157 q-38 91 -79 175 l58 20 ZM684 234 q41 67 85 157 q46 94 72 168 l63 -23 q-75 -182 -161 -324 l-59 22 Z" /><glyph glyph-name="" unicode="&#x4e9b;" d="M667 336 q-68 0 -92 21 q-24 22 -24 83 l0 394 l67 0 l0 -202 q71 26 127 51 q64 29 102 54 l54 -51 q-57 -30 -134 -61 q-70 -27 -149 -52 l0 -133 q0 -41 55 -41 l164 0 q31 0 40 24 q9 23 13 108 q23 -17 61 -27 q-7 -100 -28 -133 q-22 -35 -81 -35 l-175 0 ZM172 234 l669 0 l0 -64 l-669 0 l0 64 ZM503 366 q-57 -8 -121 -17 l-327 -43 l-8 65 l67 7 l0 347 l62 0 l0 -339 l95 11 l0 437 l65 0 l0 -174 l160 0 l0 -61 l-160 0 l0 -193 l166 20 l1 -60 ZM61 16 l879 0 l0 -66 l-879 0 l0 66 Z" /><glyph glyph-name="" unicode="&#x4ea4;" d="M928 631 l-857 0 l0 65 l419 0 q-20 54 -68 126 l61 22 q52 -69 74 -128 l-50 -20 l421 0 l0 -65 ZM673 596 q73 -49 143 -108 q76 -63 115 -109 l-55 -43 q-36 46 -111 111 q-70 61 -143 111 l51 38 ZM387 571 q-48 -62 -122 -126 q-68 -60 -138 -105 q-24 28 -51 50 q68 39 134 93 q70 57 114 113 l63 -25 ZM721 409 q-60 -153 -168 -256 q154 -120 401 -161 q-25 -26 -41 -61 q-252 48 -410 178 q-80 -64 -186 -111 q-99 -44 -227 -77 q-15 34 -40 61 q126 27 224 68 q104 43 181 103 q-104 101 -165 250 l60 19 q53 -134 154 -227 q101 98 150 233 l67 -19 Z" /><glyph glyph-name="" unicode="&#x4ea7;" d="M898 648 l-785 0 l0 64 l382 0 q-14 27 -29 53 q-19 31 -36 52 l64 18 q54 -63 76 -120 l-8 -3 l336 0 l0 -64 ZM353 468 q-29 70 -85 145 l56 23 q61 -74 90 -142 l-61 -26 ZM924 396 l-727 0 l0 -73 q0 -49 -4 -96 q-5 -56 -15 -107 q-12 -58 -32 -106 q-21 -55 -52 -97 q-23 30 -54 46 q28 39 47 88 q17 43 27 95 q8 43 12 93 q3 40 3 86 l0 136 l479 0 q48 78 83 170 l70 -23 q-25 -45 -43 -76 q-24 -42 -44 -71 l250 0 l0 -65 Z" /><glyph glyph-name="" unicode="&#x4eac;" d="M306 181 q-87 -132 -200 -224 q-8 8 -24 21 l-25 21 q122 97 184 205 l65 -23 ZM258 329 l491 0 l0 169 l-491 0 l0 -169 ZM537 270 l0 -266 q0 -57 -42 -71 q-38 -12 -178 -10 q-7 32 -23 63 q44 -1 96 -1 l56 0 q22 1 22 20 l0 265 l-276 0 l0 287 l626 0 l0 -287 l-281 0 ZM741 205 q53 -53 105 -109 q57 -63 85 -103 l-57 -40 q-64 96 -187 219 l54 33 ZM934 709 l0 -65 l-865 0 l0 65 l413 0 q-29 59 -65 113 l63 20 q22 -33 43 -67 q23 -39 36 -66 l375 0 Z" /><glyph glyph-name="" unicode="&#x4eae;" d="M834 -2 q21 0 28 20 q7 20 9 91 q20 -15 60 -26 q-5 -85 -23 -114 q-18 -28 -66 -28 l-125 0 q-59 0 -79 18 q-19 17 -19 68 l0 156 l-246 0 q-13 -116 -69 -171 q-59 -59 -204 -88 q-12 33 -37 55 q147 25 197 82 q44 51 49 180 l379 0 l0 -215 q0 -28 38 -28 l108 0 ZM84 366 l830 0 l0 -159 l-65 0 l0 105 l-702 0 l0 -106 l-63 0 l0 160 ZM733 573 l-462 0 l0 -91 l462 0 l0 91 ZM802 622 l0 -189 l-597 0 l0 189 l597 0 ZM933 738 l0 -57 l-869 0 l0 57 l422 0 q-20 49 -47 88 l65 15 q39 -54 57 -103 l372 0 Z" /><glyph glyph-name="" unicode="&#x4eb2;" d="M878 653 l-742 0 l0 57 l340 0 q-24 57 -54 109 l65 15 q41 -65 64 -124 l327 0 l0 -57 ZM338 186 q-33 -62 -86 -123 q-50 -58 -103 -100 q-28 26 -55 41 q120 84 180 202 l64 -20 ZM697 209 q57 -51 108 -104 q57 -61 84 -101 l-57 -39 q-65 100 -189 210 l54 34 ZM535 415 l0 -109 l376 0 l0 -60 l-376 0 l0 -241 q0 -53 -37 -68 q-34 -12 -148 -10 q-6 27 -23 61 q38 -1 76 -1 q32 0 45 1 q20 0 20 17 l0 241 l-373 0 l0 60 l373 0 l0 109 l-394 0 l0 60 l250 0 q-21 73 -70 150 l60 16 q54 -81 75 -153 l-42 -13 l246 0 q49 79 83 165 l68 -15 q-21 -42 -40 -77 q-23 -42 -42 -73 l264 0 l0 -60 l-391 0 Z" /><glyph glyph-name="" unicode="&#x2f08;&#x4eba;" d="M538 832 l0 -14 l-2 -49 q-2 -43 -5 -81 l8 -57 q7 -40 16 -79 q11 -49 25 -95 q17 -54 39 -103 q24 -56 54 -106 q33 -55 73 -100 q44 -50 95 -89 q55 -42 119 -71 q-33 -27 -48 -56 q-91 43 -166 113 q-66 62 -117 145 q-45 72 -79 158 q-27 70 -48 151 q-18 -83 -46 -157 q-32 -84 -76 -155 q-51 -80 -116 -142 q-72 -69 -163 -116 q-16 24 -52 51 q75 38 137 90 q57 49 103 110 q42 56 74 121 q28 60 49 127 q18 59 30 123 q10 55 15 114 q5 45 6 96 q1 18 1 39 l1 32 l73 0 Z" /><glyph glyph-name="" unicode="&#x4ec5;" d="M366 808 q-46 -112 -109 -217 l0 -665 l-66 0 l0 567 q-62 -85 -120 -140 q-14 32 -41 65 q172 158 271 411 l65 -21 ZM466 662 q28 -125 70 -230 q44 -110 104 -195 q137 174 190 425 l-364 0 ZM905 714 q-28 -164 -87 -300 q-56 -129 -137 -230 q120 -142 284 -202 q-25 -22 -44 -54 q-162 65 -282 206 q-128 -137 -302 -209 q-13 30 -39 55 q172 64 300 207 q-66 92 -116 215 q-46 115 -79 259 l5 1 l-45 0 l0 63 l488 0 l12 3 l42 -14 Z" /><glyph glyph-name="" unicode="&#x4eca;" d="M800 349 l51 -26 q-59 -78 -150 -193 q-85 -107 -169 -209 l-67 32 q63 73 139 166 q71 86 128 159 l-568 0 l0 67 l625 0 l11 4 ZM581 371 q-27 32 -85 82 q-50 43 -104 84 l46 40 q57 -42 104 -80 q59 -48 88 -79 l-49 -47 ZM560 811 q-6 -8 -18 -26 q75 -89 193 -177 q116 -85 224 -132 q-11 -9 -27 -27 q-13 -15 -24 -31 q-228 113 -406 317 q-169 -203 -412 -322 q-22 34 -50 56 q136 63 258 161 q125 101 199 212 l63 -31 Z" /><glyph glyph-name="" unicode="&#x4ecb;" d="M282 445 l69 0 l0 -131 q0 -58 -7 -102 q-8 -56 -30 -103 q-24 -54 -67 -98 q-48 -50 -120 -88 q-19 26 -53 48 q68 35 112 79 q40 39 63 87 q19 41 27 90 q6 38 6 89 l0 129 ZM655 447 l69 0 l0 -525 l-69 0 l0 525 ZM553 804 q-2 -3 -4 -7 l-12 -19 q71 -96 190 -178 q122 -85 246 -122 q-26 -24 -47 -61 q-258 90 -425 310 q-173 -222 -427 -322 q-15 36 -39 63 q139 46 268 150 q129 104 196 222 l54 -36 Z" /><glyph glyph-name="" unicode="&#x4ece;" d="M458 164 q-22 48 -66 118 q-41 65 -89 130 q-26 -158 -70 -273 q-48 -125 -122 -214 q-8 8 -30 23 q-16 12 -33 23 q60 64 101 154 q39 83 65 194 q23 99 36 230 q7 59 11 127 q5 61 8 135 l71 -3 q-5 -88 -11 -160 q-6 -81 -15 -149 q134 -160 194 -289 l-50 -46 ZM721 809 q-13 -187 -35 -326 q14 -69 35 -133 q23 -73 54 -135 q34 -70 76 -124 q47 -59 102 -96 q-31 -31 -48 -59 q-45 35 -85 84 q-37 45 -69 102 q-29 51 -53 111 q-21 53 -39 113 q-32 -135 -85 -234 q-56 -106 -139 -183 q-19 19 -63 46 q73 61 125 147 q49 82 81 191 q29 99 47 230 q8 60 14 130 q6 64 10 139 l72 -3 Z" /><glyph glyph-name="" unicode="&#x4ed4;" d="M336 816 q-44 -121 -106 -229 l0 -663 l-64 0 l0 561 q-42 -63 -90 -114 q-18 35 -38 63 q150 157 235 401 l63 -19 ZM956 339 l-287 0 l0 -322 q0 -62 -44 -77 q-23 -8 -69 -10 q-37 -2 -112 -1 q-5 31 -23 67 q127 -4 158 -2 q23 1 23 23 l0 322 l-290 0 l0 65 l290 0 l0 145 q115 61 209 153 l-437 0 l0 62 l496 0 l14 4 l46 -33 q-48 -56 -121 -116 q-68 -55 -140 -99 l0 -116 l287 0 l0 -65 Z" /><glyph glyph-name="" unicode="&#x4ed6;" d="M334 813 q-47 -117 -103 -213 l0 -674 l-65 0 l0 573 q-50 -71 -106 -131 q-17 37 -38 63 q160 155 251 401 l61 -19 ZM816 -2 q45 0 60 29 q14 26 20 117 q26 -19 62 -28 q-9 -106 -34 -140 q-29 -39 -107 -39 l-268 0 q-87 0 -118 27 q-31 27 -31 104 l0 334 l-102 -39 l-25 58 l127 49 l0 269 l65 0 l0 -243 l156 61 l0 277 l63 0 l0 -253 l167 65 l19 16 l46 -18 l-3 -12 q0 -72 -1 -129 q0 -63 -2 -110 q-3 -104 -11 -134 q-10 -58 -59 -69 q-19 -4 -50 -6 q-25 -1 -50 0 q-4 39 -17 62 q19 -1 46 -1 l33 0 q28 0 36 31 q6 20 9 101 l2 89 q1 44 1 111 l-166 -64 l0 -369 l-63 0 l0 344 l-156 -61 l0 -359 q0 -43 16 -56 q16 -14 69 -14 l266 0 Z" /><glyph glyph-name="" unicode="&#x4ed8;" d="M366 809 q-46 -114 -108 -222 l0 -661 l-67 0 l0 558 q-50 -70 -107 -129 q-17 35 -42 65 q164 155 259 409 l65 -20 ZM949 546 l-129 0 l0 -528 q0 -68 -51 -84 q-26 -8 -79 -10 q-24 -1 -59 -1 l-73 0 q-9 31 -27 66 q57 -2 119 -2 q48 0 71 1 q32 1 32 30 l0 528 l-408 0 l0 67 l408 0 l0 210 l67 0 l0 -210 l129 0 l0 -67 ZM559 157 q-21 44 -66 119 q-38 64 -82 132 l57 27 q41 -61 84 -129 q44 -71 68 -115 l-61 -34 Z" /><glyph glyph-name="" unicode="&#x4ee3;" d="M879 615 q-58 78 -166 165 l48 31 q109 -84 169 -159 l-51 -37 ZM382 805 q-49 -112 -110 -205 l0 -673 l-67 0 l0 578 q-65 -86 -140 -153 q-16 34 -39 63 q189 160 294 410 l62 -20 ZM644 469 q28 -214 80 -331 q55 -129 136 -135 q40 -3 57 175 q9 -9 27 -20 q15 -8 28 -14 q-15 -121 -43 -173 q-26 -48 -67 -46 q-118 9 -188 155 q-33 68 -57 167 q-22 92 -37 215 l-248 -32 l-10 63 l250 31 q-13 137 -21 297 l67 0 q2 -74 7 -149 q5 -70 12 -140 l303 37 l10 -61 l-306 -39 Z" /><glyph glyph-name="" unicode="&#x4ee5;" d="M528 476 q-20 47 -63 116 q-42 65 -86 122 l55 29 q105 -125 154 -232 l-60 -35 ZM475 266 q2 -13 8 -32 l9 -30 q-205 -97 -272 -132 q-34 -17 -51 -28 q-8 -4 -14 -9 l-10 -8 q-12 30 -37 55 q20 11 36 31 q21 26 21 56 l0 587 l71 0 l0 -600 l239 110 ZM833 793 q-6 -94 -14 -169 q-9 -82 -21 -149 q-26 -145 -74 -246 q71 -67 133 -134 q69 -76 103 -126 l-57 -43 q-67 104 -209 244 q-98 -161 -299 -252 q-16 28 -49 57 q229 90 321 291 q43 95 67 232 q10 63 18 141 q6 70 11 158 l70 -4 Z" /><glyph glyph-name="" unicode="&#x4eea;" d="M656 579 q-34 91 -114 206 l53 26 q36 -50 68 -104 q35 -58 49 -96 l-56 -32 ZM336 813 q-44 -112 -105 -216 l0 -670 l-63 0 l0 572 q-49 -71 -107 -132 l-17 32 q-13 23 -22 32 q160 155 251 401 l63 -19 ZM907 766 q-17 -93 -37 -169 q-22 -84 -49 -155 q-59 -156 -150 -266 q117 -134 290 -195 q-29 -25 -47 -58 q-173 68 -289 201 q-125 -127 -313 -200 q-10 19 -40 51 q191 72 313 199 q-79 108 -134 257 q-50 138 -84 323 l64 8 q29 -167 76 -295 q50 -139 124 -240 q82 105 135 250 q24 67 43 145 q18 71 33 157 l65 -13 Z" /><glyph glyph-name="" unicode="&#x4eec;" d="M292 813 q-28 -103 -76 -215 l0 -673 l-64 0 l0 542 q-39 -68 -74 -114 q-15 38 -37 65 q58 75 109 186 q49 106 82 225 l60 -16 ZM343 638 l65 0 l0 -714 l-65 0 l0 714 ZM437 834 q79 -108 119 -191 l-55 -31 q-36 83 -116 196 l52 26 ZM918 13 q0 -59 -40 -74 q-20 -8 -60 -10 q-18 -2 -44 -2 l-53 0 q-5 28 -23 64 q95 -3 131 -1 q23 1 23 23 l0 724 l-276 0 l0 61 l342 0 l0 -785 Z" /><glyph glyph-name="" unicode="&#x4ef6;" d="M337 813 q-44 -116 -100 -218 l0 -669 l-63 0 l0 566 q-44 -66 -98 -126 q-15 34 -38 65 q151 156 236 401 l63 -19 ZM947 272 l-274 0 l0 -348 l-66 0 l0 348 l-289 0 l0 64 l289 0 l0 229 l-164 0 q-32 -92 -74 -156 l-27 17 q-18 12 -30 17 q42 60 75 154 q30 85 48 189 l63 -12 q-15 -84 -35 -145 l144 0 l0 194 l66 0 l0 -194 l231 0 l0 -64 l-231 0 l0 -229 l274 0 l0 -64 Z" /><glyph glyph-name="" unicode="&#x4ef7;" d="M337 816 q-44 -118 -97 -216 l0 -675 l-67 0 l0 563 q-41 -64 -90 -118 q-21 40 -39 64 q144 150 231 401 l62 -19 ZM442 451 l67 0 l0 -137 q0 -51 -5 -93 q-7 -56 -24 -104 q-19 -56 -53 -104 q-38 -54 -94 -96 q-16 24 -48 46 q52 36 86 85 q30 42 47 93 q14 43 20 93 q4 36 4 81 l0 136 ZM726 452 l67 0 l0 -525 l-67 0 l0 525 ZM669 825 q-2 -5 -5 -11 l-16 -34 q120 -201 317 -306 q-10 -7 -25 -24 l-22 -27 q-172 101 -302 298 q-55 -91 -130 -167 q-83 -85 -185 -146 q-13 29 -41 51 q64 37 120 85 q53 44 97 95 q81 95 123 198 l69 -12 Z" /><glyph glyph-name="" unicode="&#x4efb;" d="M365 816 q-44 -106 -108 -213 l0 -679 l-66 0 l0 580 q-60 -81 -123 -143 q-7 13 -19 32 q-14 22 -24 33 q176 159 276 410 l64 -20 ZM669 344 l0 -317 l271 0 l0 -64 l-600 0 l0 64 l262 0 l0 317 l-300 0 l0 64 l300 0 l0 272 q-58 -10 -124 -19 q-58 -9 -122 -17 q-1 11 -8 28 l-12 28 q73 10 144 21 q77 13 145 26 q73 15 132 30 q63 16 107 32 l49 -55 q-46 -16 -113 -33 l-64 -15 l-67 -14 l0 -284 l288 0 l0 -64 l-288 0 Z" /><glyph glyph-name="" unicode="&#x4efd;" d="M328 813 q-41 -114 -94 -215 l0 -674 l-66 0 l0 561 q-20 -30 -44 -62 q-20 -27 -45 -57 q-14 31 -39 65 q143 153 226 401 l62 -19 ZM573 795 q-75 -269 -245 -415 q-15 32 -42 57 q156 124 222 372 l65 -14 ZM847 444 l0 -23 l-1 -9 q-11 -228 -24 -326 q-13 -97 -36 -124 q-22 -27 -64 -30 q-44 -4 -114 1 q-4 36 -19 62 q31 -3 64 -4 q25 -1 42 -1 q24 0 35 13 q17 18 28 102 q12 84 22 277 l-186 0 q-20 -171 -75 -278 q-58 -113 -167 -181 q-20 30 -46 49 q102 57 156 160 q51 97 67 250 l-135 0 l0 62 l453 0 ZM748 815 q60 -243 219 -371 q-34 -24 -46 -55 q-169 143 -233 415 l60 11 Z" /><glyph glyph-name="" unicode="&#x4f01;" d="M543 16 l387 0 l0 -62 l-847 0 l0 62 l129 0 l0 373 l66 0 l0 -373 l196 0 l0 550 l69 0 l0 -233 l293 0 l0 -61 l-293 0 l0 -256 ZM560 816 q-4 -7 -11 -16 q-1 -2 -3 -4 l-9 -12 q86 -103 202 -182 q51 -36 111 -68 q53 -29 117 -58 q-31 -27 -44 -55 q-62 30 -113 60 q-58 34 -108 70 q-111 81 -201 186 q-168 -203 -416 -315 q-15 26 -45 54 q140 59 263 156 q126 100 198 213 l59 -29 Z" /><glyph glyph-name="" unicode="&#x4f17;" d="M561 814 q-12 -25 -27 -48 q146 -212 422 -285 q-23 -22 -46 -59 q-253 79 -409 294 q-143 -204 -403 -300 q-19 36 -47 61 q152 50 267 142 q119 96 179 221 l64 -26 ZM466 89 q-62 76 -161 161 q-61 -206 -194 -319 q-22 20 -57 42 q100 75 157 207 q52 119 72 299 l67 -6 q-9 -76 -28 -159 q57 -45 108 -91 q55 -51 83 -86 l-47 -48 ZM709 467 q-8 -71 -19 -128 q15 -50 36 -97 q24 -52 53 -96 q34 -50 73 -88 q44 -41 94 -67 q-10 -9 -24 -27 q-12 -15 -22 -31 q-80 47 -144 133 q-53 73 -90 166 q-57 -199 -192 -308 l-11 10 l-15 11 q-15 11 -30 21 q103 75 157 205 q51 119 67 303 l67 -7 Z" /><glyph glyph-name="" unicode="&#x4f18;" d="M833 624 q-19 30 -59 75 q-37 40 -76 77 l46 33 q90 -81 138 -147 l-49 -38 ZM340 815 q-41 -117 -105 -230 l0 -660 l-63 0 l0 559 q-42 -63 -90 -115 q-6 12 -18 31 q-13 22 -21 32 q149 156 236 401 l61 -18 ZM848 14 q23 0 30 28 q7 28 9 125 q24 -18 59 -28 q-5 -112 -22 -149 q-19 -38 -71 -38 l-120 0 q-55 0 -75 21 q-19 20 -19 77 l0 404 l65 0 l0 -404 q0 -36 36 -36 l108 0 ZM946 598 l0 -63 l-363 0 q-7 -99 -22 -179 q-16 -92 -44 -166 q-30 -81 -74 -144 q-48 -68 -114 -116 q-19 28 -49 47 q62 43 107 106 q42 58 70 133 q26 68 41 153 q13 74 19 166 l-225 0 l0 63 l229 0 q2 53 3 113 q1 53 1 113 l66 0 q0 -62 -1 -113 q-1 -61 -4 -113 l360 0 Z" /><glyph glyph-name="" unicode="&#x4f19;" d="M950 629 q-27 -74 -58 -148 q-34 -79 -61 -131 l-58 20 q63 124 107 280 l70 -21 ZM327 358 q28 49 49 133 q19 73 28 153 l63 -9 q-8 -84 -26 -160 q-22 -88 -51 -143 l-63 26 ZM342 814 q-41 -111 -99 -212 l0 -676 l-68 0 l0 566 q-46 -67 -97 -121 q-15 37 -39 65 q150 150 240 398 l63 -20 ZM667 828 l0 -40 l-1 -66 q0 -58 -1 -99 q-1 -52 -3 -94 q-2 -48 -6 -88 q13 -91 35 -161 q24 -75 60 -130 q75 -119 215 -163 q-29 -25 -44 -59 q-116 43 -188 131 q-68 82 -104 214 q-32 -124 -98 -205 q-72 -89 -196 -142 q-15 29 -45 53 q115 48 181 125 q61 72 90 181 q13 50 21 113 q7 56 10 127 q3 59 4 144 l0 159 l70 0 Z" /><glyph glyph-name="" unicode="&#x4f1a;" d="M92 334 l822 0 l0 -64 l-441 0 q-52 -69 -102 -126 q-56 -64 -108 -113 l471 37 q-32 36 -60 66 q-33 34 -61 61 l56 29 q154 -137 228 -263 l-59 -35 q-9 17 -25 40 l-32 43 l-83 -7 q-7 -1 -12 -1 l-84 -7 q-86 -7 -139 -12 q-124 -10 -180 -16 q-60 -6 -87 -10 q-23 -4 -37 -9 l-10 33 l-13 36 q23 4 75 53 q28 26 72 75 l50 59 q27 34 51 67 l-292 0 l0 64 ZM569 807 q-1 -2 -3 -5 l-11 -15 q-8 -12 -15 -20 q71 -76 181 -147 q118 -77 236 -119 q-25 -21 -47 -58 q-112 46 -228 127 q-104 73 -179 152 q-94 -107 -237 -197 l474 0 l0 -62 l-477 0 l0 60 q-82 -52 -167 -91 q-21 33 -48 57 q150 64 269 153 q123 92 188 192 l64 -27 Z" /><glyph glyph-name="" unicode="&#x4f20;" d="M335 813 q-24 -58 -49 -111 q-27 -57 -56 -107 l0 -669 l-64 0 l0 570 q-23 -33 -52 -69 q-22 -26 -54 -61 q-17 39 -38 65 q159 156 250 401 l63 -19 ZM545 467 q-8 -28 -20 -65 l-19 -60 l327 0 l10 5 l47 -30 q-42 -49 -104 -119 l-117 -130 q74 -56 112 -94 l-50 -50 q-94 101 -258 205 l48 39 q43 -27 98 -63 q85 92 156 175 l-359 0 q12 33 29 86 l32 101 l-184 0 l0 62 l203 0 l36 127 l-182 0 l0 61 l198 0 q17 60 30 114 l65 -9 l-28 -105 l289 0 l0 -61 l-306 0 q-18 -69 -36 -127 l387 0 l0 -62 l-404 0 Z" /><glyph glyph-name="" unicode="&#x4f2a;" d="M443 608 q-12 28 -40 68 q-25 37 -55 71 l54 27 q30 -33 57 -69 q29 -40 43 -66 l-59 -31 ZM342 813 q-46 -115 -104 -214 l0 -673 l-63 0 l0 574 q-47 -68 -106 -129 q-17 38 -39 64 q158 155 249 397 l63 -19 ZM919 540 q-6 -151 -12 -246 q-6 -103 -13 -167 q-14 -122 -41 -154 q-24 -31 -73 -35 q-44 -4 -145 1 q-4 39 -21 65 q39 -3 85 -4 q15 -1 32 -1 l22 0 q28 0 40 14 q22 22 35 132 q12 108 22 365 l-243 0 q-11 -87 -29 -162 q-21 -86 -53 -157 q-36 -80 -85 -142 q-53 -68 -123 -117 q-23 30 -51 46 q66 44 117 106 q46 57 80 130 q30 65 50 145 q17 70 27 151 l-225 0 l0 65 l232 0 q5 59 7 133 q1 26 1 62 l1 58 l68 0 l-1 -59 q0 -34 -1 -62 q-3 -73 -8 -132 l305 0 l0 -35 ZM726 181 q-44 85 -125 176 l55 30 q88 -97 127 -172 l-57 -34 Z" /><glyph glyph-name="" unicode="&#x4f30;" d="M335 813 q-40 -106 -105 -219 l0 -668 l-64 0 l0 569 q-46 -66 -105 -129 q-18 40 -39 65 q160 155 251 401 l62 -19 ZM826 278 l-377 0 l0 -248 l377 0 l0 248 ZM669 550 l0 -209 l225 0 l0 -413 l-68 0 l0 39 l-377 0 l0 -43 l-65 0 l0 417 l217 0 l0 209 l-276 0 l0 64 l276 0 l0 220 l68 0 l0 -220 l287 0 l0 -64 l-287 0 Z" /><glyph glyph-name="" unicode="&#x4f34;" d="M865 759 q-57 -132 -117 -230 q-9 7 -27 16 q-14 7 -30 14 q29 42 61 103 q28 55 53 114 l60 -17 ZM467 529 q-18 41 -56 105 q-34 57 -72 114 l53 24 q38 -52 73 -109 q38 -62 57 -103 l-55 -31 ZM300 813 q-28 -94 -74 -200 l0 -689 l-64 0 l0 561 q-38 -69 -87 -131 q-5 12 -16 32 q-12 23 -20 33 q126 157 201 411 l60 -17 ZM943 217 l-302 0 l0 -291 l-66 0 l0 291 l-291 0 l0 62 l291 0 l0 158 l-250 0 l0 63 l250 0 l0 336 l66 0 l0 -336 l261 0 l0 -63 l-261 0 l0 -158 l302 0 l0 -62 Z" /><glyph glyph-name="" unicode="&#x4f4e;" d="M333 814 q-19 -52 -44 -108 q-23 -51 -53 -106 l0 -674 l-64 0 l0 569 q-51 -76 -108 -138 q-6 14 -17 32 q-13 23 -21 32 q157 162 246 411 l61 -18 ZM628 146 q60 -99 93 -186 l-52 -19 q-26 79 -90 189 l49 16 ZM670 451 q-12 122 -18 265 q-110 -24 -211 -38 l0 -227 l229 0 ZM740 389 q20 -173 53 -271 q36 -105 80 -107 q27 -2 40 147 q20 -20 49 -32 q-13 -106 -37 -152 q-21 -41 -52 -40 q-78 1 -128 127 q-23 58 -40 144 q-16 79 -28 184 l-236 0 l0 -376 l147 37 q0 -29 2 -55 q-132 -38 -177 -53 q-38 -13 -51 -22 q-6 30 -25 57 q17 7 27 18 q14 16 14 42 l0 690 q137 20 256 47 q135 29 210 58 l58 -52 q-88 -29 -187 -52 q6 -151 18 -277 l214 0 l0 -62 l-207 0 Z" /><glyph glyph-name="" unicode="&#x4f53;" d="M320 814 q-39 -113 -91 -216 l0 -672 l-63 0 l0 563 q-38 -63 -90 -123 q-12 32 -39 65 q141 155 221 401 l62 -18 ZM692 566 q47 -131 119 -244 q75 -118 156 -180 q-30 -24 -51 -53 q-78 70 -151 192 q-70 118 -118 254 l0 -362 l166 0 l0 -60 l-166 0 l0 -184 l-64 0 l0 184 l-170 0 l0 60 l170 0 l0 358 q-50 -137 -121 -253 q-73 -120 -153 -191 q-26 32 -48 50 q81 64 158 183 q74 115 121 246 l-243 0 l0 64 l286 0 l0 203 l64 0 l0 -203 l303 0 l0 -64 l-258 0 Z" /><glyph glyph-name="" unicode="&#x4f5c;" d="M356 812 q-44 -110 -103 -215 l0 -671 l-67 0 l0 568 q-45 -65 -106 -128 l-17 33 q-13 22 -22 32 q160 155 251 401 l64 -20 ZM643 604 l0 -150 l292 0 l0 -62 l-292 0 l0 -158 l305 0 l0 -63 l-305 0 l0 -246 l-67 0 l0 679 l-74 0 q-65 -123 -144 -211 l-24 23 q-17 15 -28 22 q140 143 221 384 l64 -16 l-27 -70 l-30 -68 l423 0 l0 -64 l-314 0 Z" /><glyph glyph-name="" unicode="&#x4f60;" d="M334 813 q-47 -118 -104 -215 l0 -672 l-64 0 l0 573 q-48 -69 -107 -133 q-18 40 -39 65 q160 155 251 401 l63 -19 ZM518 400 q-50 -208 -147 -341 l-27 19 q-19 12 -30 18 q45 55 83 142 q34 80 57 175 l64 -13 ZM680 579 l0 -572 q0 -55 -33 -70 q-31 -14 -130 -14 q-7 33 -24 68 q30 -1 66 -1 l39 0 q17 0 17 17 l0 572 l-159 0 q-43 -100 -97 -176 l-25 21 q-19 15 -29 21 q54 68 97 173 q40 96 66 213 l65 -15 l-24 -89 q-14 -47 -29 -86 l418 0 l11 3 l44 -11 q-20 -120 -44 -209 l-56 11 q6 26 13 66 l14 78 l-200 0 ZM818 420 q100 -182 128 -336 l-63 -21 q-30 160 -124 338 l59 19 Z" /><glyph glyph-name="" unicode="&#x4f7f;" d="M345 818 q-40 -103 -104 -209 l0 -689 l-64 0 l0 592 q-56 -80 -115 -137 q-17 40 -38 65 q163 151 259 397 l62 -19 ZM600 344 q1 18 1 52 l0 106 l-189 0 l0 -158 l188 0 ZM666 502 l0 -107 q0 -34 -1 -51 l195 0 l0 158 l-194 0 ZM661 287 q-6 -57 -21 -102 q-17 -51 -47 -94 q150 -83 374 -109 q-21 -19 -40 -60 q-223 33 -373 123 q-78 -80 -230 -125 q-15 32 -40 55 q142 38 216 106 q-94 68 -149 165 l55 18 q47 -77 133 -139 q25 35 39 78 q12 37 18 84 l-245 0 l0 271 l250 0 l0 103 l-281 0 l0 61 l281 0 l0 110 l65 0 l0 -110 l292 0 l0 -61 l-292 0 l0 -103 l258 0 l0 -271 l-263 0 Z" /><glyph glyph-name="" unicode="&#x4f8b;" d="M280 818 q-26 -92 -69 -195 l0 -696 l-62 0 l0 569 q-39 -69 -76 -117 q-12 35 -35 66 q57 69 105 175 q46 99 77 214 l60 -16 ZM299 778 l346 0 l0 -62 l-170 0 q-16 -82 -39 -159 l136 0 l11 3 l38 -10 q-24 -232 -101 -394 q-73 -153 -190 -234 q-21 36 -43 52 q112 69 185 226 q-45 43 -111 93 l36 46 q27 -19 51 -37 q29 -22 49 -41 q40 103 58 235 l-137 0 q-49 -143 -112 -233 q-21 21 -51 41 q54 71 95 183 q36 100 61 229 l-112 0 l0 62 ZM753 165 l-60 0 l0 553 l60 0 l0 -553 ZM918 832 l0 -813 q0 -60 -38 -74 q-29 -13 -151 -13 q-8 35 -22 65 q37 -1 80 -1 l47 0 q22 1 22 22 l0 814 l62 0 Z" /><glyph glyph-name="" unicode="&#x4f9b;" d="M338 814 q-45 -116 -104 -217 l0 -671 l-65 0 l0 570 q-46 -66 -106 -129 q-6 14 -17 33 q-12 22 -21 32 q160 155 251 401 l62 -19 ZM549 159 q-75 -134 -190 -233 q-23 25 -53 42 q113 86 181 209 l62 -18 ZM765 175 q119 -114 179 -215 l-56 -37 q-24 45 -75 109 q-48 61 -99 113 l51 30 ZM532 302 l202 0 l0 253 l-202 0 l0 -253 ZM956 302 l0 -65 l-646 0 l0 65 l157 0 l0 253 l-132 0 l0 64 l132 0 l0 205 l65 0 l0 -205 l202 0 l0 205 l65 0 l0 -205 l145 0 l0 -64 l-145 0 l0 -253 l157 0 Z" /><glyph glyph-name="" unicode="&#x4f9d;" d="M619 652 q-20 67 -71 159 l58 19 q53 -87 76 -155 l-63 -23 ZM336 816 q-44 -119 -106 -230 l0 -663 l-64 0 l0 561 q-40 -61 -90 -115 q-13 30 -38 64 q151 159 235 402 l63 -19 ZM948 438 q-98 -89 -215 -169 q47 -89 104 -153 q61 -70 129 -109 q-25 -22 -48 -54 q-119 75 -207 227 q-81 138 -132 331 q-48 -66 -101 -121 l0 -365 l182 66 q4 -32 11 -58 q-154 -58 -209 -80 l-41 -18 q-11 -6 -20 -12 l0 -1 q-12 28 -34 50 q8 6 14 12 q9 8 15 17 q17 23 17 53 l0 272 q-55 -51 -126 -100 q-23 33 -47 53 q194 120 311 305 l-253 0 l0 63 l642 0 l0 -63 l-313 0 l-5 -7 q35 -146 87 -259 q111 82 190 166 l49 -46 Z" /><glyph glyph-name="" unicode="&#x4fbf;&#xf965;" d="M326 814 q-44 -123 -96 -222 l0 -665 l-64 0 l0 555 q-39 -62 -85 -116 q-12 28 -40 65 q141 154 222 401 l63 -18 ZM603 308 q1 12 1 28 l0 81 l-185 0 l0 -109 l184 0 ZM419 468 l185 0 l0 108 l-185 0 l0 -108 ZM669 576 l0 -108 l173 0 l0 108 l-173 0 ZM842 417 l-173 0 l0 -81 l-2 -28 l175 0 l0 109 ZM662 255 q-8 -52 -26 -94 q-20 -48 -54 -87 q152 -66 382 -83 q-25 -23 -39 -60 q-238 22 -390 98 q-80 -66 -227 -107 q-16 31 -39 55 q133 30 209 84 q-93 59 -147 146 l57 21 q47 -75 138 -126 q30 33 48 73 q16 35 23 80 l-240 0 l0 374 l247 0 l0 88 l-276 0 l0 60 l615 0 l0 -60 l-274 0 l0 -88 l237 0 l0 -374 l-244 0 Z" /><glyph glyph-name="" unicode="&#x4fdd;" d="M344 813 q-45 -109 -103 -208 l0 -678 l-64 0 l0 579 q-51 -73 -113 -136 q-15 34 -38 65 q163 153 256 397 l62 -19 ZM443 536 l384 0 l0 192 l-384 0 l0 -192 ZM708 285 q105 -177 268 -265 q-26 -21 -47 -53 q-155 99 -262 281 l0 -324 l-67 0 l0 322 q-114 -185 -277 -277 q-23 34 -46 52 q167 82 282 264 l-255 0 l0 61 l296 0 l0 130 l-221 0 l0 312 l515 0 l0 -312 l-227 0 l0 -130 l283 0 l0 -61 l-242 0 Z" /><glyph glyph-name="" unicode="&#x4fe1;" d="M612 679 q-23 58 -70 133 l57 23 q50 -70 73 -130 l-60 -26 ZM321 814 q-32 -95 -86 -202 l0 -691 l-62 0 l0 582 q-22 -35 -48 -71 q-22 -29 -50 -63 q-16 35 -38 62 q143 154 224 401 l60 -18 ZM429 187 l0 -167 l384 0 l0 167 l-384 0 ZM370 243 l503 0 l0 -316 l-60 0 l0 37 l-384 0 l0 -40 l-59 0 l0 319 ZM384 388 l479 0 l0 -56 l-479 0 l0 56 ZM863 472 l-479 0 l0 55 l479 0 l0 -55 ZM943 669 l0 -57 l-632 0 l0 57 l632 0 Z" /><glyph glyph-name="" unicode="&#x4fef;" d="M288 813 q-31 -104 -73 -204 l0 -683 l-62 0 l0 555 q-39 -71 -79 -125 q-15 36 -37 63 q58 75 109 186 q49 105 82 225 l60 -17 ZM588 632 q-12 -43 -21 -74 q-14 -41 -28 -76 l0 -554 l-58 0 l0 434 q-29 -50 -58 -86 q-4 10 -13 25 l-16 24 q47 60 85 153 q34 83 52 168 l57 -14 ZM859 494 l88 0 l0 -57 l-88 0 l0 -436 q0 -50 -31 -62 q-26 -12 -127 -12 q-6 31 -20 58 q30 -1 65 -1 l37 0 q18 1 18 17 l0 436 l-214 0 l0 57 l214 0 l0 142 l58 0 l0 -142 ZM707 136 q-13 39 -42 101 q-25 54 -54 107 l48 21 q30 -53 55 -105 q30 -60 43 -99 l-50 -25 ZM948 729 l0 -59 l-573 0 l0 -258 q0 -63 -2 -117 q-3 -68 -11 -127 q-8 -69 -22 -126 q-16 -64 -39 -113 q-8 7 -25 18 q-15 9 -27 15 q22 47 36 107 q13 52 20 117 q6 53 8 117 l2 56 l0 370 l299 0 q-24 58 -45 98 l59 16 q31 -58 52 -114 l268 0 Z" /><glyph glyph-name="" unicode="&#x503c;" d="M331 815 q-42 -118 -104 -229 l0 -661 l-62 0 l0 560 q-39 -58 -90 -116 q-15 34 -37 64 q149 158 233 402 l60 -20 ZM444 14 l356 0 l0 87 l-356 0 l0 -87 ZM444 522 l0 -89 l356 0 l0 89 l-356 0 ZM800 382 l-356 0 l0 -90 l356 0 l0 90 ZM444 151 l356 0 l0 91 l-356 0 l0 -91 ZM954 14 l0 -58 l-667 0 l0 58 l97 0 l0 560 l172 0 q10 41 20 98 l-247 0 l0 59 l257 0 q10 59 14 105 l72 -6 l-9 -48 q-6 -30 -11 -51 l271 0 l0 -59 l-283 0 l-24 -98 l246 0 l0 -560 l92 0 Z" /><glyph glyph-name="" unicode="&#x503e;" d="M667 605 q21 60 33 108 l-197 0 l0 58 l449 0 l0 -58 l-182 0 l-21 -56 q-12 -32 -21 -52 l177 0 l0 -459 l-61 0 l0 400 l-241 0 l0 -401 l-58 0 l0 460 l122 0 ZM285 816 q-29 -93 -72 -191 l0 -701 l-60 0 l0 580 q-43 -80 -98 -147 q-9 28 -34 67 q62 74 116 184 q53 106 88 225 l60 -17 ZM495 259 q0 -36 3 -54 q-104 -59 -143 -84 q-30 -19 -41 -31 q-5 23 -27 59 l9 8 q6 5 10 12 q9 17 9 42 l0 515 l59 0 l0 -189 l132 0 l0 -58 l-132 0 l0 -281 l121 61 ZM747 283 q0 -55 -7 -95 q-9 -54 -32 -97 q-26 -51 -74 -91 q-53 -46 -133 -78 q-14 26 -36 43 q73 27 122 68 q43 36 68 82 q22 39 30 87 q7 36 7 81 l0 209 l55 0 l0 -209 ZM767 118 q53 -34 103 -73 q57 -44 85 -74 l-39 -48 q-66 72 -187 155 l38 40 Z" /><glyph glyph-name="" unicode="&#x50a8;" d="M405 606 q-35 65 -112 142 l46 32 q35 -33 65 -69 q34 -40 50 -69 l-49 -36 ZM280 821 q-14 -51 -35 -106 q-17 -48 -41 -104 l0 -684 l-59 0 l0 564 q-36 -67 -81 -127 q-13 31 -35 62 q59 74 111 186 q49 105 84 225 l56 -16 ZM508 134 q7 -28 17 -54 q-101 -62 -136 -86 q-30 -21 -41 -34 q-9 30 -33 56 q13 9 22 25 q12 21 12 49 l0 362 l-101 0 l0 64 l160 0 l0 -440 l100 58 ZM849 304 l-225 0 l0 -106 l225 0 l0 106 ZM849 37 l0 110 l-225 0 l0 -110 l225 0 ZM698 530 l23 0 q49 59 94 132 l-117 0 l0 -132 ZM748 469 q-53 -63 -105 -109 l267 0 l0 -428 l-61 0 l0 49 l-225 0 l0 -53 l-58 0 l0 369 q-42 -30 -80 -56 q-16 26 -43 53 q122 70 224 175 l-194 0 l0 61 l163 0 l0 132 l-134 0 l0 58 l134 0 l0 116 l62 0 l0 -116 l120 0 l0 -53 q41 68 67 132 l60 -16 q-60 -137 -148 -253 l157 0 l0 -61 l-206 0 Z" /><glyph glyph-name="" unicode="&#x50cf;" d="M332 813 q-23 -62 -47 -115 q-27 -60 -56 -111 l0 -660 l-64 0 l0 556 q-45 -66 -91 -117 q-12 27 -38 65 q147 155 234 401 l62 -19 ZM419 466 l144 0 q18 27 29 57 q9 25 12 50 l-185 0 l0 -107 ZM485 711 q-35 -48 -70 -86 l192 0 q33 36 63 86 l-185 0 ZM831 573 l-171 0 q-5 -57 -30 -107 l201 0 l0 107 ZM902 326 q-23 -15 -55 -34 l-59 -33 q56 -165 177 -227 q-26 -23 -44 -51 q-123 75 -181 255 q-11 -6 -26 -13 l-26 -12 q26 -77 18 -151 q-7 -71 -41 -103 q-30 -30 -85 -32 q-17 0 -61 2 q-2 31 -16 58 q35 -4 66 -4 q33 0 50 19 q42 38 24 149 q-63 -59 -154 -111 q-86 -49 -171 -79 q-19 31 -39 47 q95 28 192 82 q101 56 160 115 q-11 33 -27 61 q-53 -47 -133 -92 q-75 -43 -146 -69 q-16 25 -37 44 q75 22 157 65 q85 45 135 90 q-21 30 -47 51 q-77 -61 -205 -103 q-16 24 -38 43 q79 25 137 57 q54 29 91 64 l-159 0 l0 156 q-12 -11 -28 -24 l-29 -24 q-19 27 -44 42 q78 55 142 133 q55 67 90 138 l63 -12 q-12 -24 -33 -59 l185 0 l13 3 l39 -28 q-34 -58 -80 -114 l217 0 l0 -211 l-299 0 l-11 -14 q-7 -8 -13 -13 q63 -52 101 -131 q51 27 98 55 q54 32 87 56 l45 -41 Z" /><glyph glyph-name="" unicode="&#x5143;" d="M855 692 l-705 0 l0 64 l705 0 l0 -64 ZM838 5 q31 0 40 33 q9 31 13 149 q21 -17 62 -30 q-6 -129 -26 -170 q-22 -44 -84 -44 l-148 0 q-64 0 -86 21 q-23 21 -23 82 l0 365 l-194 0 q-8 -90 -22 -154 q-17 -77 -48 -134 q-33 -65 -86 -112 q-57 -51 -140 -84 q-18 33 -42 51 q77 29 130 75 q48 42 78 100 q27 52 41 121 q12 56 18 137 l-258 0 l0 65 l875 0 l0 -65 l-284 0 l0 -365 q0 -41 48 -41 l136 0 Z" /><glyph glyph-name="" unicode="&#x5148;" d="M841 4 q29 0 37 27 q9 27 12 125 q20 -17 61 -28 q-6 -113 -26 -150 q-21 -37 -78 -37 l-146 0 q-63 0 -84 20 q-22 20 -22 78 l0 302 l-198 0 q-8 -80 -24 -138 q-18 -68 -50 -118 q-70 -112 -228 -166 q-19 36 -43 55 q148 46 212 144 q29 44 45 103 q14 49 21 120 l-265 0 l0 64 l402 0 l0 207 l-212 0 q-38 -88 -90 -154 q-14 9 -28 16 q-18 10 -29 15 q49 59 89 153 q35 82 55 168 l68 -13 q-18 -63 -39 -121 l186 0 l0 159 l67 0 l0 -159 l333 0 l0 -64 l-333 0 l0 -207 l402 0 l0 -64 l-274 0 l0 -303 q0 -34 46 -34 l133 0 Z" /><glyph glyph-name="" unicode="&#x5149;" d="M867 739 q-38 -60 -76 -113 q-45 -61 -79 -99 l-56 25 q87 101 144 214 l67 -27 ZM289 527 q-47 92 -145 212 l53 29 q44 -52 84 -107 q44 -61 65 -100 l-57 -34 ZM839 8 q23 0 30 15 q7 15 9 68 q10 -7 30 -15 q14 -5 32 -10 q-6 -72 -25 -97 q-20 -25 -71 -25 l-159 0 q-65 0 -88 20 q-22 20 -22 78 l0 360 l-158 0 q-7 -96 -22 -161 q-17 -78 -49 -134 q-71 -125 -245 -186 q-16 35 -42 57 q162 51 227 162 q28 50 43 119 q13 57 19 143 l-278 0 l0 64 l394 0 l0 370 l69 0 l0 -370 l392 0 l0 -64 l-282 0 l0 -359 q0 -35 48 -35 l148 0 Z" /><glyph glyph-name="" unicode="&#x2f0a;&#x5165;" d="M341 811 q57 -40 104 -91 q42 -45 80 -102 q31 -47 63 -108 q13 -24 28 -56 l28 -55 q17 -34 27 -56 l29 -54 q33 -59 66 -104 q39 -53 83 -95 q49 -47 109 -82 q-26 -36 -33 -73 q-81 46 -146 115 q-54 58 -104 142 q-20 33 -42 76 l-78 157 l-41 77 q-113 -398 -408 -572 q-26 30 -60 53 q165 87 267 241 q98 146 147 367 q-68 101 -159 164 l40 56 Z" /><glyph glyph-name="" unicode="&#x5168;" d="M534 14 l392 0 l0 -61 l-848 0 l0 61 l387 0 l0 171 l-262 0 l0 60 l262 0 l0 162 l-267 0 l0 60 l608 0 l0 -60 l-272 0 l0 -162 l274 0 l0 -60 l-274 0 l0 -171 ZM554 819 q-12 -18 -18 -26 q88 -104 203 -192 q53 -40 114 -78 q55 -35 119 -70 q-31 -25 -47 -56 q-62 37 -115 73 q-58 40 -109 81 q-111 88 -201 193 q-166 -213 -423 -343 q-16 28 -46 54 q138 64 262 167 q128 107 202 224 l59 -27 Z" /><glyph glyph-name="" unicode="&#x2f0b;&#x516b;" d="M383 731 q-6 -61 -12 -111 q-7 -59 -15 -112 q-20 -122 -50 -219 q-36 -112 -87 -198 q-57 -96 -135 -161 q-19 27 -47 49 q74 61 128 152 q48 81 80 188 q27 92 44 208 q8 49 14 105 q5 48 9 105 l71 -6 ZM653 760 l0 -8 q1 -6 1 -11 l2 -28 q3 -38 8 -78 q6 -51 15 -101 q11 -60 26 -115 q17 -65 39 -123 q25 -65 56 -120 q33 -61 73 -110 q44 -53 96 -91 q-38 -21 -57 -45 q-52 40 -97 95 q-41 51 -76 115 q-31 58 -56 126 q-22 60 -40 128 q-15 58 -27 122 q-9 52 -16 106 q-5 41 -8 83 l-4 51 l65 4 Z" /><glyph glyph-name="" unicode="&#x516c;" d="M400 786 q-104 -252 -282 -411 l-29 24 q-21 16 -33 23 q178 139 275 383 l69 -19 ZM675 303 q69 -81 136 -173 q69 -97 105 -162 l-64 -35 q-30 55 -68 111 l-316 -21 q-123 -8 -180 -13 q-60 -5 -86 -8 q-22 -4 -36 -9 l-11 33 q-9 24 -15 36 q17 4 40 28 q15 15 49 57 q37 41 106 146 q37 57 70 114 q37 65 66 124 l70 -32 q-66 -120 -134 -223 q-75 -114 -147 -198 l482 27 q-29 42 -64 88 q-31 41 -64 82 l61 28 ZM659 812 q116 -237 301 -381 q-30 -23 -56 -57 q-182 163 -309 413 l64 25 Z" /><glyph glyph-name="" unicode="&#x516d;" d="M941 569 l0 -68 l-879 0 l0 68 l879 0 ZM385 357 q-117 -248 -271 -427 q-33 27 -65 46 q152 160 264 404 l72 -23 ZM672 388 q37 -52 74 -105 q41 -58 77 -112 q39 -58 70 -106 q33 -53 55 -91 l-68 -37 q-41 76 -120 200 q-76 118 -150 222 l62 29 ZM478 830 q62 -117 97 -206 l-71 -29 q-32 90 -92 213 l66 22 Z" /><glyph glyph-name="" unicode="&#x5173;" d="M330 625 q-28 78 -99 171 l54 29 q68 -80 104 -168 l-59 -32 ZM558 304 q117 -240 396 -311 q-27 -23 -47 -62 q-266 81 -394 324 q-17 -46 -45 -88 q-32 -45 -78 -86 q-50 -43 -119 -81 q-74 -41 -169 -75 q-17 31 -47 58 q98 34 172 74 q68 37 116 80 q43 39 70 84 q24 39 37 83 l-377 0 l0 66 l390 0 q3 35 3 65 l0 121 l-334 0 l0 65 l470 0 q64 96 111 210 l71 -25 q-53 -101 -111 -185 l204 0 l0 -65 l-337 0 l0 -122 q0 -31 -3 -64 l394 0 l0 -66 l-373 0 Z" /><glyph glyph-name="" unicode="&#x5174;" d="M940 354 l0 -64 l-883 0 l0 64 l883 0 ZM669 233 q75 -65 148 -136 q81 -79 123 -129 l-60 -41 q-40 51 -119 132 q-74 74 -147 140 l55 34 ZM380 207 q-114 -166 -283 -282 q-23 31 -48 53 q170 108 260 255 l71 -26 ZM124 743 q111 -154 156 -288 l-63 -30 q-43 134 -153 293 l60 25 ZM422 816 q90 -161 117 -301 l-65 -25 q-27 139 -114 305 l62 21 ZM923 764 q-53 -105 -111 -204 q-66 -112 -119 -183 l-60 27 q127 169 220 386 l70 -26 Z" /><glyph glyph-name="" unicode="&#x5175;" d="M411 125 q-134 -116 -304 -200 q-22 26 -47 48 q79 37 158 89 q83 55 130 102 l63 -39 ZM639 164 q77 -42 157 -92 q86 -55 133 -93 l-51 -50 q-45 38 -130 95 q-82 54 -158 97 l49 43 ZM294 261 l349 0 l0 242 l-349 0 l0 -242 ZM949 261 l0 -64 l-895 0 l0 64 l173 0 l0 510 q79 4 154 10 q84 6 157 13 q81 8 145 17 q71 10 121 20 l36 -60 q-103 -20 -256 -35 q-142 -15 -290 -21 l0 -149 l599 0 l0 -63 l-182 0 l0 -242 l238 0 Z" /><glyph glyph-name="" unicode="&#x5176;" d="M309 199 l381 0 l0 116 l-381 0 l0 -116 ZM309 653 l0 -106 l381 0 l0 106 l-381 0 ZM309 373 l381 0 l0 116 l-381 0 l0 -116 ZM942 138 l-884 0 l0 61 l186 0 l0 454 l-158 0 l0 62 l158 0 l0 119 l65 0 l0 -119 l381 0 l0 119 l67 0 l0 -119 l162 0 l0 -62 l-162 0 l0 -454 l185 0 l0 -61 ZM425 76 q-64 -40 -159 -82 q-87 -38 -174 -67 q-21 30 -43 50 q85 26 172 64 q92 41 143 76 l61 -41 ZM621 113 q195 -70 324 -140 l-59 -44 q-118 70 -309 141 l44 43 Z" /><glyph glyph-name="" unicode="&#x5177;" d="M275 206 l459 0 l0 96 l-459 0 l0 -96 ZM275 731 l0 -91 l459 0 l0 91 l-459 0 ZM275 446 l0 -92 l459 0 l0 92 l-459 0 ZM734 588 l-459 0 l0 -90 l459 0 l0 90 ZM947 145 l-890 0 l0 61 l152 0 l0 581 l594 0 l0 -581 l144 0 l0 -61 ZM394 95 q-55 -46 -142 -94 q-79 -43 -160 -76 q-15 23 -47 49 q81 30 160 73 q84 46 127 86 l62 -38 ZM651 135 q169 -74 300 -157 l-51 -49 q-115 78 -290 161 l41 45 Z" /><glyph glyph-name="" unicode="&#x5178;" d="M406 98 q-55 -47 -141 -96 q-80 -46 -160 -79 q-22 25 -50 48 q79 30 160 76 q83 47 127 88 l64 -37 ZM644 137 q177 -85 292 -164 l-58 -45 q-111 81 -280 166 l46 43 ZM208 222 l151 0 l0 193 l-151 0 l0 -193 ZM208 652 l0 -175 l151 0 l0 175 l-151 0 ZM422 652 l0 -175 l155 0 l0 175 l-155 0 ZM640 652 l0 -175 l158 0 l0 175 l-158 0 ZM577 415 l-155 0 l0 -193 l155 0 l0 193 ZM640 222 l158 0 l0 193 l-158 0 l0 -193 ZM956 222 l0 -64 l-913 0 l0 64 l101 0 l0 492 l215 0 l0 123 l63 0 l0 -123 l155 0 l0 123 l63 0 l0 -123 l224 0 l0 -492 l92 0 Z" /><glyph glyph-name="" unicode="&#x517b;" d="M616 296 l69 0 l0 -372 l-69 0 l0 372 ZM671 390 q112 -111 284 -156 q-27 -25 -44 -56 q-201 65 -315 212 l-182 0 q-41 -55 -91 -95 l53 0 l0 -63 q0 -44 -7 -79 q-8 -46 -29 -83 q-24 -44 -65 -80 q-47 -41 -116 -72 q-22 35 -45 52 q63 27 106 62 q37 30 58 68 q18 31 26 69 q5 28 5 65 l0 50 q-92 -70 -225 -107 q-14 27 -44 59 q175 40 286 154 l-265 0 l0 56 l311 0 q14 18 27 41 q9 16 23 44 l-268 0 l0 55 l291 0 q7 17 14 39 q5 15 12 41 l-365 0 l0 56 l219 0 q-22 50 -63 99 l57 20 q48 -53 70 -102 l-44 -17 l264 0 q20 28 41 60 q22 36 34 61 l68 -21 q-39 -63 -69 -100 l218 0 l0 -56 l-365 0 q-9 -37 -23 -80 l337 0 l0 -55 l-358 0 q-18 -45 -41 -85 l482 0 l0 -56 l-262 0 Z" /><glyph glyph-name="" unicode="&#x5185;" d="M899 16 q0 -64 -44 -79 q-23 -8 -71 -10 l-51 -2 l-62 0 q-5 34 -23 68 q48 -2 100 -2 q40 0 60 1 q25 1 25 24 l0 583 l-300 0 q-3 -74 -19 -134 q78 -67 159 -147 q83 -82 130 -137 l-54 -42 q-39 49 -112 124 q-68 70 -142 139 q-31 -79 -86 -143 q-64 -74 -162 -131 q-21 30 -47 49 q80 44 135 99 q50 49 80 108 q26 51 39 110 q10 47 12 105 l-297 0 l0 -677 l-66 0 l0 742 l364 0 l0 172 l67 0 l0 -172 l365 0 l0 -648 Z" /><glyph glyph-name="" unicode="&#x518d;" d="M770 229 l0 132 l-240 0 l0 -132 l240 0 ZM229 229 l234 0 l0 132 l-234 0 l0 -132 ZM229 546 l0 -127 l234 0 l0 127 l-234 0 ZM530 546 l0 -127 l240 0 l0 127 l-240 0 ZM958 167 l-122 0 l0 -158 q0 -59 -42 -74 q-21 -8 -65 -10 q-33 -2 -106 -2 q-7 34 -26 64 q47 -1 94 -1 q38 0 56 1 q23 0 23 22 l0 158 l-541 0 l0 -245 l-66 0 l0 245 l-119 0 l0 62 l119 0 l0 378 l300 0 l0 104 l-383 0 l0 62 l841 0 l0 -62 l-391 0 l0 -104 l306 0 l0 -378 l122 0 l0 -62 Z" /><glyph glyph-name="" unicode="&#x5192;" d="M260 356 l0 -76 l479 0 l0 76 l-479 0 ZM739 154 l0 77 l-479 0 l0 -77 l479 0 ZM739 24 l0 80 l-479 0 l0 -80 l479 0 ZM195 408 l611 0 l0 -477 l-67 0 l0 41 l-479 0 l0 -45 l-65 0 l0 481 ZM746 616 l-493 0 l0 49 l493 0 l0 -49 ZM255 490 l0 49 l490 0 l0 -49 l-490 0 ZM873 789 l0 -331 l-66 0 l0 279 l-619 0 l0 -281 l-64 0 l0 333 l749 0 Z" /><glyph glyph-name="" unicode="&#x519b;" d="M145 588 l-64 0 l0 205 l840 0 l0 -205 l-67 0 l0 146 l-709 0 l0 -146 ZM930 93 l-363 0 l0 -168 l-66 0 l0 168 l-422 0 l0 62 l422 0 l0 130 l-190 0 q-85 0 -101 -14 q-6 28 -22 64 q18 4 56 65 q21 34 61 116 l-123 0 l0 59 l149 0 q15 33 26 61 q13 34 21 64 l68 -21 l-21 -52 q-13 -31 -23 -52 l414 0 l0 -59 l-442 0 q-46 -97 -95 -171 l222 0 l0 121 l66 0 l0 -121 l278 0 l0 -60 l-278 0 l0 -130 l363 0 l0 -62 Z" /><glyph glyph-name="" unicode="&#x51b3;" d="M209 563 q-20 39 -66 98 q-40 52 -87 102 l52 33 q46 -48 89 -100 q47 -57 69 -95 l-57 -38 ZM266 298 q-76 -173 -166 -328 l-56 40 q89 145 172 329 l50 -41 ZM631 505 q0 -36 -1 -64 q-2 -36 -5 -66 l166 0 l0 238 l-160 0 l0 -108 ZM668 311 q38 -122 110 -204 q75 -87 184 -124 q-26 -25 -44 -58 q-114 46 -192 141 q-74 89 -116 224 q-12 -53 -34 -101 q-24 -51 -59 -96 q-80 -102 -220 -171 q-15 28 -46 53 q137 62 211 155 q33 41 55 89 q19 43 29 92 l-240 0 l0 64 l250 0 q3 31 5 67 q1 27 1 63 l0 108 l-203 0 l0 63 l203 0 l0 157 l69 0 l0 -157 l224 0 l0 -301 l103 0 l0 -64 l-290 0 Z" /><glyph glyph-name="" unicode="&#x51b5;" d="M212 566 q-22 39 -67 97 q-44 54 -89 100 l51 36 q46 -47 89 -98 q48 -57 70 -94 l-54 -41 ZM271 297 q-79 -173 -171 -330 l-57 44 q89 138 180 328 l48 -42 ZM442 449 l384 0 l0 278 l-384 0 l0 -278 ZM867 -5 q20 0 27 28 q6 27 8 125 q21 -18 58 -28 q-5 -109 -22 -146 q-17 -38 -64 -38 l-103 0 q-52 0 -70 20 q-18 20 -18 75 l0 356 l-127 0 q-6 -95 -17 -158 q-14 -74 -39 -128 q-57 -118 -198 -175 q-13 28 -42 53 q131 50 182 153 q23 48 35 114 q9 56 14 141 l-115 0 l0 403 l519 0 l0 -403 l-146 0 l0 -357 q0 -35 31 -35 l87 0 Z" /><glyph glyph-name="" unicode="&#x51c6;" d="M681 659 q-8 27 -30 70 q-20 36 -43 73 l56 26 q25 -37 45 -72 q22 -41 32 -68 l-60 -29 ZM190 542 q-19 42 -59 106 q-39 62 -78 115 l58 27 q94 -121 141 -215 l-62 -33 ZM54 4 q81 144 152 333 l59 -33 q-30 -80 -71 -172 q-38 -88 -74 -161 l-66 33 ZM431 57 l216 0 l0 143 l-216 0 l0 -143 ZM647 597 l-216 0 l0 -139 l216 0 l0 139 ZM647 399 l-216 0 l0 -140 l216 0 l0 140 ZM948 -4 l-517 0 l0 -72 l-62 0 l0 595 q-48 -73 -103 -133 l-23 24 q-16 16 -27 23 q72 69 134 175 q60 102 99 218 l61 -15 q-25 -74 -64 -155 l481 0 l0 -59 l-216 0 l0 -139 l196 0 l0 -59 l-196 0 l0 -140 l195 0 l0 -59 l-195 0 l0 -143 l237 0 l0 -61 Z" /><glyph glyph-name="" unicode="&#x51fa;" d="M890 339 l0 -413 l-72 0 l0 58 l-707 0 l0 355 l72 0 l0 -290 l280 0 l0 355 l-309 0 l0 339 l69 0 l0 -274 l240 0 l0 366 l72 0 l0 -366 l244 0 l0 275 l72 0 l0 -340 l-316 0 l0 -355 l283 0 l0 290 l72 0 Z" /><glyph glyph-name="" unicode="&#x5206;" d="M398 795 q-102 -253 -293 -408 q-23 27 -56 50 q187 137 279 377 l70 -19 ZM808 458 l0 -24 l-1 -9 q-11 -234 -24 -329 q-14 -100 -40 -129 q-26 -29 -75 -32 q-57 -3 -158 3 q-4 37 -22 66 q44 -4 93 -6 l60 -1 q28 0 43 12 q20 20 31 105 q12 85 22 278 l-283 0 q-11 -83 -30 -144 q-22 -74 -57 -131 q-40 -64 -100 -111 q-66 -52 -157 -85 q-15 32 -41 56 q85 28 146 74 q56 41 92 98 q32 51 52 116 q16 54 25 127 l-197 0 l0 66 l621 0 ZM669 816 q103 -227 287 -364 q-28 -21 -53 -56 q-179 152 -294 396 l60 24 Z" /><glyph glyph-name="" unicode="&#x5207;" d="M430 273 q2 -26 11 -57 q-169 -76 -225 -104 q-27 -14 -42 -23 q-11 -7 -19 -15 q-12 35 -32 60 q16 9 27 24 q15 20 15 46 l0 282 l-122 -26 l-11 60 l133 29 l0 247 l64 0 l0 -234 l193 42 l11 -59 l-204 -45 l0 -312 l201 85 ZM935 746 l0 -16 q-1 -7 -1 -12 l0 -10 q-3 -100 -6 -176 q-2 -83 -5 -146 q-6 -135 -13 -215 q-14 -156 -43 -193 q-26 -35 -74 -41 q-51 -3 -140 2 q-4 42 -21 67 q39 -3 81 -4 q32 -1 54 -1 q27 0 39 18 q25 27 38 173 q13 144 23 490 l-215 0 q-1 -67 -3 -115 q-3 -61 -8 -112 q-12 -120 -38 -210 q-31 -104 -86 -180 q-61 -84 -155 -138 q-24 35 -49 51 q90 49 148 127 q52 71 81 168 q24 84 35 197 q4 47 6 105 q2 43 3 107 l-163 0 l0 64 l512 0 Z" /><glyph glyph-name="" unicode="&#x5217;" d="M66 780 l504 0 l0 -64 l-270 0 q-20 -84 -45 -158 l231 0 l12 3 l40 -13 q-36 -247 -147 -408 q-102 -147 -265 -221 q-17 32 -41 56 q157 63 256 208 q-69 66 -157 122 l39 49 q89 -56 154 -113 q62 112 90 255 l-235 0 q-53 -134 -120 -217 q-25 25 -52 43 q58 69 103 175 q43 98 70 219 l-167 0 l0 64 ZM711 164 l-65 0 l0 553 l65 0 l0 -553 ZM917 832 l0 -818 q0 -58 -39 -74 q-31 -12 -148 -12 q-7 32 -23 64 q96 -2 122 0 q22 0 22 22 l0 818 l66 0 Z" /><glyph glyph-name="" unicode="&#x521b;" d="M453 -3 q35 0 45 26 q10 25 14 116 q30 -19 60 -25 q-7 -105 -29 -139 q-22 -36 -86 -36 l-190 0 q-70 0 -95 20 q-26 21 -26 82 l0 430 l358 0 l-2 -28 q-8 -131 -16 -187 q-10 -58 -26 -76 q-18 -21 -55 -24 q-35 -3 -97 0 q-2 31 -17 58 q24 -3 52 -3 q10 -1 21 -1 l14 0 q20 0 29 9 q10 11 17 54 q7 47 13 139 l-227 0 l0 -371 q0 -44 62 -44 l181 0 ZM378 815 q-6 -16 -19 -43 q69 -70 130 -140 q70 -79 104 -129 l-49 -44 q-32 50 -93 123 q-59 71 -122 136 q-96 -171 -248 -289 q-20 24 -49 45 q93 67 170 166 q74 94 116 193 l60 -18 ZM710 170 l-63 0 l0 549 l63 0 l0 -549 ZM908 820 l0 -803 q0 -61 -44 -77 q-38 -13 -177 -12 q-9 39 -24 63 q25 -1 51 -1 l102 0 q26 1 26 26 l0 804 l66 0 Z" /><glyph glyph-name="" unicode="&#x5220;" d="M557 447 l0 296 l-100 0 l0 -296 l100 0 ZM270 447 l0 297 l-100 0 l0 -297 l100 0 ZM614 447 l52 0 l0 -62 l-52 0 l0 -376 q0 -48 -28 -61 q-23 -12 -106 -12 q-4 29 -18 58 q24 -1 50 -1 l30 0 q15 1 15 17 l0 375 l-100 0 l0 -20 q0 -60 -2 -109 q-3 -63 -10 -117 q-8 -63 -21 -114 q-15 -57 -37 -100 q-6 7 -22 17 q-13 8 -25 14 q20 40 33 93 q12 47 18 105 q5 49 8 108 l1 123 l-73 0 l0 -376 q0 -48 -29 -61 q-22 -12 -105 -12 q-4 29 -18 58 q23 -1 50 0 l30 0 q15 0 15 16 l0 375 l-100 0 l0 -50 q0 -57 -2 -104 q-4 -60 -11 -110 q-9 -58 -24 -105 q-16 -53 -41 -91 q-17 21 -48 34 q23 37 38 85 q13 43 21 96 q6 44 8 99 q2 40 2 96 l0 50 l-65 0 l0 62 l65 0 l0 356 l214 0 l0 -356 l73 0 l0 355 l214 0 l0 -355 ZM766 166 l-55 0 l0 557 l55 0 l0 -557 ZM914 818 l0 -817 q0 -51 -32 -65 q-26 -12 -125 -12 q-5 27 -20 59 q30 -1 64 0 l36 0 q19 0 19 19 l0 816 l58 0 Z" /><glyph glyph-name="" unicode="&#x5229;" d="M337 535 l211 0 l0 -62 l-211 0 l0 -26 q17 -15 47 -45 q25 -24 58 -58 l54 -55 q22 -22 37 -38 l-38 -54 q-62 74 -158 175 l0 -446 l-66 0 l0 445 q-42 -92 -92 -171 q-54 -85 -105 -135 q-14 34 -36 61 q136 131 219 347 l-200 0 l0 62 l214 0 l0 177 q-55 -10 -100 -17 q-52 -8 -97 -14 q-5 29 -21 53 q58 8 114 18 q61 11 114 22 q123 27 188 55 l50 -50 q-36 -15 -84 -29 q-43 -12 -98 -24 l0 -191 ZM695 170 l-66 0 l0 548 l66 0 l0 -548 ZM908 825 l0 -805 q0 -62 -43 -78 q-35 -13 -176 -13 q-7 34 -25 67 q25 -1 51 -1 l101 0 q26 1 26 25 l0 805 l66 0 Z" /><glyph glyph-name="" unicode="&#x522b;" d="M427 731 l-268 0 l0 -202 l268 0 l0 202 ZM491 469 l-393 0 l0 322 l393 0 l0 -322 ZM507 352 l0 -12 q-1 -5 -1 -10 l0 -9 q-9 -183 -19 -259 q-10 -77 -28 -99 q-21 -26 -60 -29 q-42 -4 -110 1 q-2 34 -18 63 q28 -3 61 -3 q11 -1 23 -1 l16 0 q22 0 32 11 q12 14 20 77 q9 65 16 209 l-146 0 q-8 -65 -22 -115 q-16 -57 -39 -101 q-52 -98 -152 -154 q-15 32 -42 48 q90 48 137 134 q40 73 55 188 l-171 0 l0 61 l178 0 l5 91 l64 0 l-6 -91 l207 0 ZM694 167 l-64 0 l0 548 l64 0 l0 -548 ZM908 816 l0 -802 q0 -61 -42 -78 q-32 -13 -170 -13 q-9 39 -25 67 q43 -1 92 -1 l54 0 q25 1 25 25 l0 802 l66 0 Z" /><glyph glyph-name="" unicode="&#x5230;" d="M363 93 q22 4 53 10 l106 19 q29 5 53 10 l4 -58 l-266 -52 q-140 -27 -232 -44 l-14 62 l232 41 l0 174 l-197 0 l0 60 l197 0 l0 111 l64 0 l0 -111 l203 0 l0 -60 l-203 0 l0 -162 ZM75 768 l510 0 l0 -59 l-271 0 q-58 -113 -121 -195 l270 24 q-43 60 -78 103 l48 29 q45 -54 86 -111 q45 -63 66 -103 l-50 -33 q-14 28 -38 64 l-298 -31 q-37 -5 -54 -8 q-14 -3 -23 -7 l-10 30 q-7 22 -13 33 q18 3 48 44 q7 9 17 24 l23 37 q31 51 53 100 l-165 0 l0 59 ZM706 149 l-62 0 l0 601 l62 0 l0 -601 ZM906 818 l0 -783 q0 -60 -39 -75 q-21 -8 -61 -11 q-33 -2 -92 -2 q-8 36 -26 67 q95 -3 132 -1 q21 1 21 21 l0 784 l65 0 Z" /><glyph glyph-name="" unicode="&#x5236;" d="M359 518 l246 0 l0 -61 l-246 0 l0 -106 l208 0 l0 -276 q0 -47 -29 -60 q-24 -11 -117 -11 q-2 22 -19 59 q68 -3 90 -1 q14 0 14 14 l0 215 l-147 0 l0 -365 l-64 0 l0 365 l-138 0 l0 -284 l-61 0 l0 344 l199 0 l0 106 l-246 0 l0 61 l246 0 l0 111 l-136 0 q-13 -34 -25 -58 q-14 -29 -27 -49 q-24 15 -59 25 q33 47 60 121 q24 65 42 143 l62 -12 q-14 -58 -32 -109 l115 0 l0 142 l64 0 l0 -142 l206 0 l0 -61 l-206 0 l0 -111 ZM744 194 l-63 0 l0 549 l63 0 l0 -549 ZM923 826 l0 -804 q0 -63 -40 -80 q-21 -8 -62 -11 q-34 -2 -96 -2 q-9 42 -22 71 l134 -2 q22 1 22 23 l0 805 l64 0 Z" /><glyph glyph-name="" unicode="&#x5237;" d="M174 735 l0 -135 l343 0 l0 135 l-343 0 ZM174 540 l0 -85 q0 -65 -3 -121 q-4 -70 -12 -131 q-10 -72 -26 -130 q-19 -67 -46 -117 q-26 26 -50 37 q25 48 42 109 q14 54 23 120 q7 56 10 121 l2 58 l0 395 l466 0 l0 -256 l-406 0 ZM581 107 q0 -42 -24 -55 q-19 -11 -92 -11 q-3 23 -19 55 q22 -1 44 -1 l24 0 q11 1 11 13 l0 246 l-112 0 l0 -432 l-58 0 l0 432 l-104 0 l0 -325 l-52 0 l0 382 l156 0 l0 106 l58 0 l0 -106 l168 0 l0 -304 ZM739 174 l-59 0 l0 556 l59 0 l0 -556 ZM913 819 l0 -795 q0 -60 -39 -77 q-20 -8 -61 -11 q-33 -2 -94 -2 q-6 39 -21 69 q37 -1 81 -1 l50 0 q21 0 21 21 l0 796 l63 0 Z" /><glyph glyph-name="" unicode="&#x524d;" d="M416 200 l0 107 l-231 0 l0 -107 l231 0 ZM185 464 l0 -104 l231 0 l0 104 l-231 0 ZM480 5 q0 -51 -34 -65 q-30 -11 -139 -11 q-7 31 -22 59 q83 -3 112 -1 q19 1 19 18 l0 142 l-231 0 l0 -218 l-64 0 l0 593 l359 0 l0 -517 ZM810 543 l65 0 l0 -532 q0 -56 -39 -71 q-21 -8 -61 -10 q-29 -2 -95 -2 q-7 32 -25 64 q99 -3 133 -1 q22 1 22 20 l0 532 ZM670 106 l-62 0 l0 407 l62 0 l0 -407 ZM944 676 l0 -61 l-887 0 l0 61 l252 0 q-32 66 -94 138 l61 23 q67 -76 101 -142 l-49 -19 l303 0 q58 85 96 165 l69 -24 q-25 -42 -44 -72 q-26 -40 -47 -69 l239 0 Z" /><glyph glyph-name="" unicode="&#x5272;" d="M546 688 l-415 0 l0 -92 l181 0 l0 58 l60 0 l0 -58 l174 0 l0 92 ZM487 162 l-299 0 l0 -130 l299 0 l0 130 ZM339 840 q29 -48 46 -100 l222 0 l0 -144 l-58 0 l0 -51 l-177 0 l0 -70 l153 0 l0 -50 l-153 0 l0 -72 l227 0 l0 -51 l-227 0 l0 -82 l174 0 l0 -290 l-59 0 l0 49 l-299 0 l0 -55 l-57 0 l0 296 l181 0 l0 82 l-240 0 l0 51 l240 0 l0 72 l-162 0 l0 50 l162 0 l0 70 l-187 0 l0 45 l-54 0 l0 150 l245 0 q-18 50 -37 84 l60 16 ZM736 162 l-60 0 l0 536 l60 0 l0 -536 ZM919 829 l0 -818 q0 -57 -38 -73 q-33 -13 -156 -13 q-5 33 -21 64 q97 -3 129 -1 q23 1 23 23 l0 818 l63 0 Z" /><glyph glyph-name="" unicode="&#x2f12;&#x529b;&#xf98a;" d="M903 616 q0 -1 -1 -15 l-1 -21 q-18 -315 -37 -443 q-19 -132 -52 -168 q-27 -34 -82 -38 q-51 -5 -158 4 q-4 39 -23 67 q45 -4 96 -6 l62 -1 q31 0 46 15 q27 27 45 147 q18 124 33 392 l-350 0 q-6 -87 -23 -161 q-21 -88 -59 -164 q-44 -86 -111 -159 q-75 -80 -179 -145 q-22 34 -51 52 q99 60 170 133 q64 67 105 147 q37 69 57 150 q16 67 22 147 l-325 0 l0 67 l328 0 q1 18 1 51 l0 167 l69 0 l0 -167 q0 -33 -1 -51 l419 0 Z" /><glyph glyph-name="" unicode="&#x529f;" d="M443 219 q-48 -14 -102 -29 q-47 -14 -101 -29 l-180 -50 l-17 67 l163 41 l0 433 l-150 0 l0 63 l364 0 l0 -63 l-148 0 l0 -415 q17 4 40 11 l124 33 l7 -62 ZM937 571 q-13 -311 -28 -438 q-15 -129 -43 -162 q-25 -33 -74 -37 q-23 -2 -64 -1 q-37 1 -83 4 q-4 37 -20 65 q40 -4 86 -5 q16 -1 33 -1 l22 0 q30 0 42 15 q23 25 37 142 q14 117 25 389 l-209 0 q-7 -108 -22 -190 q-19 -95 -50 -170 q-36 -82 -90 -145 q-59 -67 -142 -113 q-23 34 -48 51 q78 42 134 103 q51 57 84 132 q30 69 47 157 q14 75 20 175 l-168 0 l0 64 l171 0 q3 102 3 212 l67 0 q0 -110 -3 -212 l273 0 l0 -35 Z" /><glyph glyph-name="" unicode="&#x52a0;" d="M490 652 l0 -26 l-1 -9 q-14 -331 -29 -462 q-16 -134 -44 -168 q-24 -33 -65 -36 q-40 -5 -109 0 q-2 40 -18 68 q29 -3 59 -4 q24 -1 41 -1 q23 0 34 17 q22 25 37 147 q14 127 27 409 l-148 0 q-5 -103 -15 -186 q-11 -98 -29 -178 q-21 -90 -52 -160 q-34 -77 -80 -133 q-25 29 -53 43 q43 50 75 122 q28 65 48 149 q17 75 28 168 q8 78 13 175 l-142 0 l0 65 l144 0 l2 181 l66 0 q0 -88 -3 -181 l214 0 ZM840 76 l0 569 l-205 0 l0 -569 l205 0 ZM909 709 l0 -764 l-69 0 l0 67 l-205 0 l0 -74 l-66 0 l0 771 l340 0 Z" /><glyph glyph-name="" unicode="&#x52a1;" d="M864 280 q0 -2 -1 -12 q0 -5 -1 -10 q0 -5 -1 -8 q-17 -137 -35 -202 q-17 -64 -42 -86 q-27 -25 -77 -26 q-52 -2 -145 3 q-4 32 -21 59 q40 -4 88 -6 l60 -1 q31 0 43 10 q18 15 33 65 q16 56 27 155 l-310 0 q-46 -119 -142 -191 q-91 -67 -244 -104 q-11 28 -36 57 q273 51 352 238 l-281 0 l0 59 l300 0 q14 49 20 102 l69 -6 q-9 -60 -20 -96 l364 0 ZM323 658 q63 -84 188 -136 q75 30 133 67 q63 39 106 85 l-412 0 l-15 -16 ZM853 707 q-43 -65 -114 -120 q-65 -52 -152 -93 q76 -25 173 -41 q89 -15 196 -22 q-23 -26 -37 -60 q-119 10 -219 31 q-106 23 -191 58 q-96 -38 -212 -64 q-103 -23 -221 -38 q-8 33 -27 59 q210 19 387 78 q-97 53 -156 125 q-35 -28 -67 -50 q-38 -26 -75 -47 q-19 32 -42 48 q99 53 179 128 q70 67 112 138 l70 -14 q-32 -51 -67 -91 l411 0 l12 3 l40 -28 Z" /><glyph glyph-name="" unicode="&#x52a8;" d="M477 693 l-382 0 l0 60 l382 0 l0 -60 ZM450 65 q-1 3 -2 7 l-17 62 l-95 -21 q-44 -10 -74 -16 q-66 -15 -98 -23 q-33 -8 -49 -14 q-14 -4 -22 -10 q-3 12 -10 30 q-7 21 -13 33 q17 3 45 69 q15 33 38 104 q13 40 24 80 q13 45 22 87 l-141 0 l0 62 l437 0 l0 -62 l-228 0 q-39 -163 -105 -315 l250 52 q-15 44 -30 81 q-16 43 -31 78 l55 15 q67 -154 103 -279 l-59 -20 ZM941 569 q-11 -312 -23 -435 q-13 -127 -38 -160 q-27 -31 -70 -35 q-60 -4 -139 2 q-2 35 -21 65 q38 -4 81 -5 q15 -1 31 -1 l21 0 q27 0 39 15 q20 23 32 138 q12 118 20 387 l-157 0 q-5 -100 -17 -180 q-12 -92 -34 -167 q-24 -83 -60 -147 q-39 -70 -92 -121 q-24 32 -52 47 q50 46 86 110 q33 59 56 135 q21 70 33 155 q11 75 16 168 l-145 0 l0 64 l148 0 q3 107 3 215 l65 0 q0 -57 -1 -107 q-1 -57 -3 -108 l221 0 l0 -35 Z" /><glyph glyph-name="" unicode="&#x52bf;" d="M54 547 l2 0 l165 27 l0 102 l-153 0 l0 60 l153 0 l0 99 l61 0 l0 -99 l132 0 l0 -60 l-132 0 l0 -92 l136 25 l3 -59 q-40 -8 -69 -13 l-70 -13 l0 -108 q0 -48 -31 -60 q-27 -11 -129 -11 q-4 23 -20 57 q30 -1 64 -1 l38 0 q17 0 17 15 l0 97 l-153 -28 l-14 62 ZM835 736 q-7 -326 43 -326 q24 0 28 89 q23 -20 51 -25 q-6 -71 -24 -97 q-17 -26 -57 -26 q-68 0 -89 88 q-10 38 -13 103 q-1 28 -1 64 l0 73 l-130 0 q-9 -79 -30 -141 q88 -56 132 -93 l-37 -52 q-19 18 -52 42 q-25 19 -67 47 q-47 -84 -147 -131 l57 0 q-7 -44 -14 -73 l373 0 l-1 -12 q0 -5 -1 -10 q0 -5 -1 -8 q-13 -134 -29 -199 q-15 -63 -39 -85 q-24 -24 -76 -27 q-44 -3 -154 4 q-4 36 -22 60 q43 -3 93 -5 l62 -1 q31 0 42 9 q32 28 54 215 l-317 0 q-37 -112 -119 -180 q-94 -77 -265 -115 q-11 32 -36 57 q154 31 240 93 q75 55 110 145 l-303 0 l0 59 l321 0 q7 29 14 73 q-14 25 -36 43 q100 43 142 123 q-58 38 -104 64 l35 45 l91 -54 q14 39 22 107 l-145 0 l0 57 l150 0 l4 100 l62 0 l-4 -100 l187 0 Z" /><glyph glyph-name="" unicode="&#x52e4;" d="M142 384 l135 0 l0 90 l-135 0 l0 -90 ZM453 474 l-122 0 l0 -90 l122 0 l0 90 ZM203 630 l202 0 l0 69 l-202 0 l0 -69 ZM524 10 q-59 -7 -126 -15 l-336 -37 l-8 60 l220 19 l0 71 l-181 0 l0 52 l181 0 l0 60 l-199 0 l0 51 l199 0 l0 63 l-186 0 l0 189 l186 0 l0 58 l-131 0 l0 118 l-91 0 l0 53 l91 0 l0 82 l60 0 l0 -82 l202 0 l0 82 l62 0 l0 -82 l82 0 l0 -53 l-82 0 l0 -118 l-133 0 l0 -58 l176 0 l0 -189 l-176 0 l0 -63 l186 0 l0 -51 l-186 0 l0 -60 l166 0 l0 -52 l-166 0 l0 -66 l190 18 l0 -50 ZM926 577 q-4 -165 -8 -265 q-5 -110 -10 -176 q-11 -126 -34 -158 q-23 -30 -65 -34 q-49 -4 -119 1 q-2 34 -19 62 q32 -3 68 -3 q13 -1 26 -1 l19 0 q22 -1 35 14 q17 22 27 138 q10 120 17 395 l-127 0 q-4 -111 -12 -193 q-10 -96 -28 -171 q-41 -167 -134 -265 q-19 26 -50 44 q87 87 125 243 q17 70 27 160 q8 78 11 182 l-115 0 l0 61 l116 0 l2 109 l0 114 l61 0 l0 -114 l-2 -109 l189 0 l0 -34 Z" /><glyph glyph-name="" unicode="&#x5305;" d="M269 637 q-79 -113 -174 -191 l-26 24 l-29 24 q174 129 266 347 l67 -19 q-28 -61 -63 -121 l559 0 l-1 -33 q-8 -254 -18 -356 q-11 -104 -31 -131 q-21 -26 -62 -31 q-46 -4 -116 1 q-4 39 -18 63 q29 -3 62 -3 q12 -1 24 -1 l17 0 q23 0 34 13 q15 19 24 109 q9 93 16 305 l-531 0 ZM264 468 l0 -170 l274 0 l0 170 l-274 0 ZM782 9 q63 0 84 25 q19 23 27 103 q26 -18 63 -24 q-10 -100 -42 -132 q-34 -35 -132 -35 l-387 0 q-115 0 -155 26 q-42 27 -42 105 l0 451 l404 0 l0 -291 l-338 0 l0 -160 q0 -41 23 -54 q24 -14 103 -14 l392 0 Z" /><glyph glyph-name="" unicode="&#x5316;" d="M384 815 q-42 -103 -100 -197 l0 -694 l-69 0 l0 591 q-63 -87 -123 -143 q-22 38 -44 62 q174 158 272 401 l64 -20 ZM822 9 q39 0 52 43 q12 38 18 172 q32 -23 65 -33 q-8 -145 -31 -193 q-27 -55 -101 -55 l-182 0 q-72 0 -98 28 q-26 28 -26 106 l0 185 q-68 -46 -142 -84 q-22 28 -49 50 q94 46 191 114 l0 475 l70 0 l0 -423 q84 66 154 139 q73 76 125 156 l64 -42 q-65 -92 -157 -181 q-85 -82 -186 -156 l0 -235 q0 -41 12 -54 q11 -12 48 -12 l173 0 Z" /><glyph glyph-name="" unicode="&#x5317;&#xf963;" d="M328 816 l68 0 l0 -882 l-68 0 l0 227 l-259 -109 l-31 66 q49 16 132 48 l118 46 q9 3 20 8 l20 8 l0 286 l-260 0 l0 65 l260 0 l0 237 ZM840 14 q35 0 46 41 q10 37 15 167 q26 -21 64 -32 q-6 -141 -28 -188 q-24 -54 -93 -54 l-160 0 q-68 0 -92 26 q-24 26 -24 101 l0 741 l68 0 l0 -338 q77 47 141 92 q70 51 113 93 l54 -54 q-57 -46 -145 -103 l-81 -50 q-37 -22 -82 -47 l0 -336 q0 -38 10 -48 q9 -11 43 -11 l151 0 Z" /><glyph glyph-name="" unicode="&#x5320;" d="M939 19 l0 -64 l-841 0 l0 830 l824 0 l0 -64 l-755 0 l0 -702 l772 0 ZM633 44 l0 329 l-259 0 q-1 -44 -6 -84 q-6 -47 -17 -87 q-26 -98 -81 -160 q-27 27 -55 39 q30 33 50 75 q18 37 29 82 q8 38 12 83 q3 35 3 79 l0 215 q129 4 252 15 q136 13 213 30 l44 -53 q-83 -18 -208 -30 q-114 -11 -236 -15 l0 -129 l521 0 l0 -60 l-197 0 l0 -329 l-65 0 Z" /><glyph glyph-name="" unicode="&#x533a;" d="M948 19 l0 -64 l-846 0 l0 824 l822 0 l0 -64 l-756 0 l0 -696 l780 0 ZM771 93 q-35 45 -94 108 q-51 54 -122 123 q-128 -134 -273 -231 q-27 32 -53 50 q147 89 280 225 q-58 56 -126 115 q-60 53 -123 106 l47 38 q122 -98 246 -212 q107 121 179 249 l62 -24 q-86 -145 -195 -268 q70 -65 127 -123 q60 -62 99 -109 l-54 -47 Z" /><glyph glyph-name="" unicode="&#x534e;" d="M531 560 q-8 -2 -19 -5 l-129 -36 q-5 21 -23 52 l85 24 q47 13 86 26 l0 201 l66 0 l0 -179 q83 30 144 58 q70 33 113 64 l52 -50 q-57 -37 -141 -72 q-73 -31 -168 -62 l0 -118 q0 -38 57 -38 l170 0 q29 0 38 20 q9 20 13 92 q21 -15 59 -26 q-6 -86 -27 -115 q-21 -30 -78 -30 l-181 0 q-69 0 -93 20 q-24 20 -24 77 l0 97 ZM228 612 q-57 -56 -126 -105 q-9 11 -23 25 q-17 16 -27 24 q176 109 278 281 l62 -22 q-19 -32 -46 -68 q-22 -30 -52 -65 l0 -344 l-66 0 l0 274 ZM945 157 l-411 0 l0 -233 l-69 0 l0 233 l-410 0 l0 64 l410 0 l0 118 l69 0 l0 -118 l410 0 l1 -64 Z" /><glyph glyph-name="" unicode="&#x5355;" d="M464 324 l0 115 l-247 0 l0 -115 l247 0 ZM217 493 l247 0 l0 113 l-247 0 l0 -113 ZM790 606 l-258 0 l0 -113 l258 0 l0 113 ZM790 439 l-258 0 l0 -115 l258 0 l0 115 ZM945 105 l-413 0 l0 -180 l-68 0 l0 180 l-406 0 l0 63 l406 0 l0 99 l-311 0 l0 396 l187 0 q-41 75 -98 141 l54 27 q78 -84 108 -148 l-37 -20 l244 0 q63 85 102 169 l70 -25 q-25 -40 -48 -74 q-27 -40 -50 -70 l172 0 l0 -396 l-325 0 l0 -99 l413 0 l0 -63 Z" /><glyph glyph-name="" unicode="&#x5361;" d="M571 288 q84 -32 175 -70 q99 -42 153 -69 l-36 -59 q-132 71 -327 147 l35 51 ZM945 466 l0 -66 l-429 0 l0 -476 l-69 0 l0 476 l-391 0 l0 66 l389 0 l0 370 l69 0 l0 -146 l329 0 l0 -64 l-329 0 l0 -160 l431 0 Z" /><glyph glyph-name="" unicode="&#x536b;" d="M947 28 l0 -65 l-892 0 l0 65 l368 0 l0 668 l-304 0 l0 66 l746 0 l0 -425 q0 -59 -44 -75 q-24 -7 -75 -10 q-21 -1 -53 -1 l-64 0 q-5 29 -26 66 q129 -5 170 -1 q25 0 25 22 l0 358 l-304 0 l0 -668 l453 0 Z" /><glyph glyph-name="" unicode="&#x5371;" d="M800 -1 q47 0 62 24 q14 22 19 104 q27 -19 62 -26 q-9 -99 -35 -130 q-28 -33 -107 -33 l-293 0 q-93 0 -125 22 q-34 22 -34 89 l0 352 l445 0 l-1 -28 q-12 -200 -41 -230 q-20 -20 -62 -23 q-43 -3 -141 2 q-4 34 -19 58 q37 -3 80 -4 q15 -1 31 -1 l19 0 q30 0 38 8 q18 21 29 159 l-313 0 l0 -293 q0 -30 17 -40 q19 -10 77 -10 l292 0 ZM576 561 q14 23 34 57 l33 60 l-349 0 q-50 -62 -112 -117 l394 0 ZM945 561 l0 -61 l-706 0 l0 -121 q0 -58 -6 -110 q-7 -64 -22 -120 q-17 -65 -46 -118 q-32 -60 -77 -106 q-21 29 -51 44 q43 43 72 98 q26 48 42 106 q13 50 19 107 q4 45 4 99 l0 175 q-17 -15 -39 -32 q-17 -13 -41 -30 q-19 30 -45 50 q91 60 166 145 q64 73 105 151 l72 -14 q-22 -41 -53 -86 l343 0 l12 5 l47 -35 q-16 -27 -46 -73 l-48 -74 l298 0 Z" /><glyph glyph-name="" unicode="&#x2f1a;&#x5382;" d="M931 694 l-713 0 l0 -227 q0 -70 -4 -130 q-5 -76 -15 -142 q-13 -77 -35 -141 q-24 -72 -60 -126 q-28 25 -60 38 q34 52 57 119 q20 59 32 130 q9 60 13 131 q2 30 2 62 q1 27 1 59 l0 295 l782 0 l0 -68 Z" /><glyph glyph-name="" unicode="&#x539f;" d="M436 178 q-88 -124 -177 -210 q-21 16 -56 38 q95 81 172 193 l61 -21 ZM361 306 l430 0 l0 98 l-430 0 l0 -98 ZM361 455 l430 0 l0 98 l-430 0 l0 -98 ZM607 252 l0 -252 q0 -51 -35 -64 q-19 -7 -60 -9 q-16 -1 -43 -1 l-53 0 q-5 26 -21 59 q96 -3 128 -1 q20 0 20 17 l0 251 l-246 0 l0 355 l198 0 q11 21 22 50 q9 22 17 46 l77 -12 l-45 -84 l292 0 l0 -355 l-251 0 ZM751 197 q49 -50 99 -104 q54 -59 83 -95 l-55 -36 q-28 38 -81 99 q-49 56 -99 108 l53 28 ZM939 716 l-737 0 l0 -219 q0 -70 -3 -131 q-5 -78 -15 -145 q-12 -80 -32 -146 q-23 -74 -56 -131 q-24 22 -56 34 q31 54 52 124 q19 62 30 136 q9 62 12 135 q2 31 2 64 q1 28 1 60 l0 281 l802 0 l0 -62 Z" /><glyph glyph-name="" unicode="&#x53a8;" d="M184 727 l0 -234 q0 -71 -3 -134 q-4 -79 -12 -148 q-10 -82 -27 -150 q-19 -76 -46 -135 q-24 22 -55 32 q26 56 43 128 q16 64 24 140 q8 64 11 139 l2 66 l0 355 l823 0 l0 -59 l-760 0 ZM498 456 l-190 0 l0 -136 l190 0 l0 136 ZM560 270 l-311 0 l0 236 l311 0 l0 -236 ZM311 53 q-9 78 -45 175 l53 11 q40 -97 49 -172 l-57 -14 ZM593 582 l-373 0 l0 57 l373 0 l0 -57 ZM604 60 l2 -55 l-216 -30 l-187 -24 l-9 60 q39 4 102 12 l123 15 q41 106 64 208 l60 -16 q-17 -54 -31 -94 q-18 -53 -33 -91 l125 15 ZM951 461 l-85 0 l0 -455 q0 -54 -36 -69 q-32 -12 -143 -12 q-6 35 -21 62 q91 -2 116 0 q19 0 19 19 l0 455 l-207 0 l0 61 l207 0 l0 163 l65 0 l0 -163 l85 0 l0 -61 ZM686 160 q-15 92 -80 206 l54 19 q66 -111 83 -203 l-57 -22 Z" /><glyph glyph-name="" unicode="&#x53bb;" d="M460 347 q-107 -177 -224 -304 l512 37 q-72 104 -141 180 l58 27 q155 -169 235 -317 l-63 -35 q-16 32 -51 88 l-511 -42 q-62 -6 -90 -11 q-23 -3 -38 -9 q-4 31 -22 66 q24 3 73 64 q27 27 76 96 q27 37 52 76 q29 43 52 84 l-322 0 l0 67 l409 0 l0 195 l-331 0 l0 66 l331 0 l0 161 l69 0 l0 -161 l338 0 l0 -66 l-338 0 l0 -195 l413 0 l0 -67 l-487 0 Z" /><glyph glyph-name="" unicode="&#x53c2;" d="M824 147 q-89 -88 -256 -147 q-151 -52 -354 -78 q-11 32 -32 58 q196 21 341 67 q162 52 241 130 l60 -30 ZM694 257 q-71 -56 -188 -102 q-105 -42 -226 -69 q-9 15 -17 26 q-11 15 -21 24 q115 22 219 60 q114 42 177 89 l56 -28 ZM605 373 q-56 -42 -144 -81 q-79 -36 -161 -59 l-19 23 q-13 15 -23 23 q82 21 158 52 q87 35 135 70 l54 -28 ZM680 454 q114 -133 280 -194 q-23 -20 -45 -54 q-192 84 -311 248 l-203 0 q-115 -161 -306 -255 q-20 26 -50 52 q167 72 273 203 l-261 0 l0 60 l304 0 q30 45 52 99 q-126 -6 -174 -11 q-23 -2 -36 -4 q-11 -2 -21 -5 q-6 26 -19 63 q25 3 70 31 q31 17 85 55 q31 23 58 46 q33 26 58 51 l60 -34 q-93 -81 -191 -139 l402 16 q-67 52 -123 87 l51 35 q71 -43 142 -98 q75 -57 113 -101 l-53 -40 q-11 13 -30 31 l-36 34 l-291 -14 l9 -2 q-18 -46 -48 -100 l506 0 l0 -60 l-265 0 Z" /><glyph glyph-name="" unicode="&#x53ca;" d="M340 664 q41 -164 108 -286 q70 -130 173 -219 q69 62 119 139 q52 81 82 178 l-262 0 q35 109 64 239 l-284 0 l0 -51 ZM904 523 q-31 -129 -91 -233 q-57 -98 -139 -173 q123 -86 284 -124 q-23 -23 -45 -61 q-167 43 -295 140 q-65 -49 -144 -86 q-73 -35 -159 -60 q-15 35 -38 59 q164 41 289 131 q-75 70 -134 164 q-55 89 -97 203 q-6 -72 -20 -135 q-16 -73 -42 -138 q-30 -73 -73 -138 q-48 -71 -112 -132 q-13 25 -48 55 q77 72 127 160 q45 77 70 166 q20 75 28 162 q4 35 5 75 q1 32 1 71 l0 86 l-178 0 l0 66 l612 0 l-57 -242 l201 0 l12 3 l43 -19 Z" /><glyph glyph-name="" unicode="&#x53cc;" d="M409 53 q-31 71 -94 170 q-86 -187 -226 -298 q-25 37 -48 52 q138 100 231 312 q-49 72 -94 133 q-52 71 -97 125 l49 37 q44 -53 86 -107 q46 -60 85 -115 q54 152 78 332 l-310 0 l0 63 l327 0 l11 3 l43 -12 q-28 -259 -103 -452 q79 -116 118 -199 l-56 -44 ZM585 694 q18 -122 45 -225 q29 -109 69 -196 q104 178 142 421 l-256 0 ZM914 748 q-21 -167 -67 -307 q-44 -133 -111 -239 q88 -152 223 -224 q-27 -22 -48 -57 q-131 77 -217 220 q-103 -137 -246 -216 q-20 36 -45 56 q151 76 255 227 q-47 98 -82 223 q-32 118 -54 263 l-27 0 l0 63 l365 0 l11 3 l43 -12 Z" /><glyph glyph-name="" unicode="&#x53d1;" d="M802 639 q-19 26 -58 72 l-70 77 l50 31 q36 -36 71 -74 q39 -43 59 -69 l-52 -37 ZM421 368 q59 -128 166 -218 q107 94 159 218 l-325 0 ZM835 413 q-60 -181 -195 -303 q137 -95 319 -130 q-22 -20 -41 -59 q-193 45 -330 147 q-131 -96 -310 -146 q-12 29 -35 56 q162 40 294 133 q-94 87 -156 206 q-108 -197 -296 -314 q-20 31 -49 50 q134 83 224 208 q86 119 136 281 l-141 0 q-92 0 -105 -16 l-7 23 q-2 4 -3 9 q-8 22 -13 32 q17 4 35 39 q12 21 31 68 q24 59 35 109 l72 -13 q-32 -103 -74 -186 l188 0 q29 110 42 232 l74 -12 q-18 -124 -41 -220 l437 0 l-1 -65 l-454 0 q-18 -63 -37 -110 l344 0 l12 3 l45 -22 Z" /><glyph glyph-name="" unicode="&#x53d6;" d="M184 148 q18 3 43 7 l135 22 l0 136 l-178 0 l0 -165 ZM184 727 l0 -146 l178 0 l0 146 l-178 0 ZM184 372 l178 0 l0 150 l-178 0 l0 -150 ZM427 129 l0 -203 l-65 0 l0 191 l-304 -54 l-15 65 l77 11 l0 588 l-69 0 l0 60 l451 0 l0 -60 l-75 0 l0 -539 l86 14 l3 -57 l-89 -16 ZM617 659 q19 -118 45 -212 q28 -104 66 -186 q44 86 75 183 q33 103 51 215 l-237 0 ZM924 713 q-21 -157 -62 -289 q-40 -128 -99 -231 q78 -138 199 -209 q-26 -20 -46 -52 q-112 71 -191 200 q-86 -128 -201 -208 q-16 27 -43 50 q119 76 209 221 q-46 93 -80 214 q-31 110 -54 250 l-51 0 l0 62 l366 0 l12 3 l41 -11 Z" /><glyph glyph-name="" unicode="&#x53d7;" d="M864 785 q-70 -15 -165 -28 q-87 -13 -192 -23 q-97 -9 -204 -16 q-99 -7 -200 -11 q-1 11 -6 29 q-3 10 -10 28 q98 4 198 11 q105 7 200 16 q101 10 183 21 q88 13 149 26 l47 -53 ZM485 557 q-10 67 -51 150 l59 13 q42 -78 55 -148 l-63 -15 ZM226 702 q54 -76 73 -134 l-59 -20 q-20 63 -71 138 l57 16 ZM140 347 l-63 0 l0 201 l603 0 q61 92 97 174 l66 -21 q-43 -79 -96 -153 l177 0 l0 -201 l-65 0 l0 142 l-719 0 l0 -142 ZM301 307 q71 -105 202 -182 q131 75 199 182 l-401 0 ZM801 344 q-38 -78 -99 -143 q-57 -61 -135 -111 q161 -76 376 -102 q-23 -27 -41 -62 q-233 34 -400 127 q-87 -45 -194 -78 q-99 -30 -213 -49 q-15 34 -38 59 q107 15 200 40 q99 27 181 66 q-131 87 -209 214 l5 2 l-41 0 l0 62 l552 0 l13 3 l43 -28 Z" /><glyph glyph-name="" unicode="&#x53d8;" d="M353 673 l-279 0 l0 60 l415 0 q-21 47 -52 95 l62 16 q20 -29 36 -57 q19 -32 27 -54 l365 0 l0 -60 l-282 0 l0 -306 l-66 0 l0 306 l-159 0 l0 -307 l-67 0 l0 307 ZM743 621 q110 -98 171 -191 l-52 -34 q-65 99 -169 198 l50 27 ZM291 612 q-51 -122 -143 -214 q-10 9 -25 19 q-17 11 -28 17 q88 77 136 194 l60 -16 ZM289 278 q76 -99 211 -171 q141 72 216 171 l-427 0 ZM816 311 q-41 -72 -107 -133 q-61 -56 -143 -103 q166 -70 385 -95 q-24 -24 -37 -58 q-120 16 -221 45 q-108 30 -194 74 q-88 -41 -197 -72 q-97 -28 -212 -47 q-11 32 -33 59 q103 14 195 37 q99 25 182 59 q-133 79 -216 201 l-81 0 l0 60 l625 0 l11 3 l43 -30 Z" /><glyph glyph-name="" unicode="&#x53ea;" d="M652 220 q82 -63 158 -129 q86 -76 130 -127 l-60 -41 q-42 52 -125 129 q-78 71 -159 134 l56 34 ZM407 192 q-116 -157 -303 -271 q-19 21 -52 47 q83 48 161 115 q82 70 125 134 l69 -25 ZM230 378 l539 0 l0 319 l-539 0 l0 -319 ZM839 760 l0 -446 l-676 0 l0 446 l676 0 Z" /><glyph glyph-name="" unicode="&#x53ef;" d="M228 482 l0 -242 l275 0 l0 242 l-275 0 ZM228 177 l0 -80 l-64 0 l0 448 l404 0 l0 -368 l-340 0 ZM944 697 l-124 0 l0 -674 q0 -69 -49 -85 q-26 -8 -80 -10 q-23 -2 -57 -2 l-67 0 q-7 28 -29 72 q54 -3 115 -3 q46 0 71 1 q28 1 28 28 l0 673 l-692 0 l0 67 l884 0 l0 -67 Z" /><glyph glyph-name="" unicode="&#x53f0;" d="M251 276 l0 -232 l495 0 l0 232 l-495 0 ZM184 340 l632 0 l0 -413 l-70 0 l0 53 l-495 0 l0 -55 l-67 0 l0 415 ZM654 718 q77 -67 150 -146 q79 -84 116 -144 l-57 -40 q-27 43 -63 88 l-345 -20 q-136 -7 -196 -12 q-65 -4 -93 -8 q-25 -3 -39 -9 q-5 27 -21 65 q26 6 81 60 q15 14 40 41 q30 32 60 67 q37 43 69 84 q37 49 65 93 l65 -30 q-64 -86 -129 -160 q-69 -80 -135 -140 l530 26 q-71 80 -150 151 l52 34 Z" /><glyph glyph-name="" unicode="&#x53f3;" d="M337 319 l0 -275 l456 0 l0 275 l-456 0 ZM413 582 q-43 -111 -96 -199 l545 0 l0 -455 l-69 0 l0 52 l-456 0 l0 -57 l-66 0 l0 390 q-83 -114 -191 -192 q-15 24 -44 53 q103 71 183 180 q71 99 123 228 l-274 0 l0 65 l297 0 q33 93 52 189 l69 -14 q-11 -47 -23 -87 q-13 -47 -27 -88 l500 0 l0 -65 l-523 0 Z" /><glyph glyph-name="" unicode="&#x53f7;" d="M742 734 l-487 0 l0 -143 l487 0 l0 143 ZM811 532 l-622 0 l0 262 l622 0 l0 -262 ZM349 376 q-2 -6 -5 -15 l-15 -44 q-11 -35 -20 -58 l502 0 l-4 -31 q-36 -233 -87 -276 q-25 -23 -82 -26 q-27 -1 -70 0 q-49 2 -97 5 q-4 34 -23 63 q46 -5 102 -7 l69 -1 q35 0 47 9 q40 31 66 203 l-521 0 q31 75 65 178 l-209 0 l0 61 l863 0 l0 -61 l-581 0 Z" /><glyph glyph-name="" unicode="&#x53f8;" d="M229 363 l0 -196 l334 0 l0 196 l-334 0 ZM628 108 l-399 0 l0 -74 l-65 0 l0 388 l464 0 l0 -314 ZM700 536 l-602 0 l0 60 l602 0 l0 -60 ZM882 28 q0 -67 -43 -83 q-24 -8 -72 -11 l-51 -2 l-62 0 q-6 41 -23 73 q47 -2 99 -2 q40 0 61 1 q24 0 24 24 l0 678 l-723 0 l0 64 l790 0 l0 -742 Z" /><glyph glyph-name="" unicode="&#x5404;" d="M272 216 l0 -189 l450 0 l0 189 l-450 0 ZM205 277 l586 0 l0 -354 l-69 0 l0 44 l-450 0 l0 -48 l-67 0 l0 358 ZM317 659 q76 -89 188 -160 q129 81 200 171 l-378 0 l-10 -11 ZM812 702 q-43 -67 -108 -129 q-60 -57 -140 -110 q186 -103 399 -147 q-20 -19 -43 -60 q-224 52 -415 170 q-99 -58 -218 -104 q-108 -42 -221 -70 q-10 31 -33 60 q103 22 208 60 q110 40 205 93 q-99 69 -171 152 q-76 -72 -163 -127 q-10 11 -24 24 q-17 17 -27 24 q95 54 178 133 q86 82 139 172 l62 -22 q-27 -47 -63 -92 l378 0 l11 4 l46 -31 Z" /><glyph glyph-name="" unicode="&#x5408;" d="M267 262 l0 -215 l476 0 l0 215 l-476 0 ZM200 322 l613 0 l0 -392 l-70 0 l0 54 l-476 0 l0 -58 l-67 0 l0 396 ZM576 808 q-9 -17 -32 -45 q82 -88 192 -159 q51 -33 110 -64 q54 -29 118 -57 q-27 -22 -46 -58 q-62 30 -114 59 q-58 33 -107 67 q-107 73 -191 164 q-101 -116 -241 -206 l487 0 l0 -62 l-502 0 l0 52 q-81 -49 -158 -82 q-11 16 -21 29 q-14 17 -26 28 q145 57 270 152 q129 97 203 211 l58 -29 Z" /><glyph glyph-name="" unicode="&#x540c;" d="M362 385 l0 -199 l276 0 l0 199 l-276 0 ZM362 129 l0 -74 l-62 0 l0 387 l400 0 l0 -313 l-338 0 ZM756 551 l-507 0 l0 58 l507 0 l0 -58 ZM910 11 q0 -59 -40 -75 q-32 -13 -165 -13 q-8 38 -25 65 q103 -3 140 -1 q25 1 25 24 l0 709 l-688 0 l0 -798 l-65 0 l0 861 l818 0 l0 -772 Z" /><glyph glyph-name="" unicode="&#x540d;" d="M778 40 l0 235 l-456 0 l0 -235 l456 0 ZM845 -75 l-67 0 l0 54 l-456 0 l0 -54 l-66 0 l0 334 q-91 -32 -169 -50 q-9 32 -34 61 q96 20 190 54 q99 35 186 83 q-69 65 -158 126 l50 38 q95 -64 168 -129 q165 101 253 232 l-379 0 q-103 -100 -240 -172 q-19 29 -46 50 q114 55 206 137 q81 72 129 149 l74 -15 q-31 -48 -66 -88 l364 0 l12 4 l44 -28 q-61 -117 -171 -215 q-100 -91 -235 -160 l411 0 l0 -411 Z" /><glyph glyph-name="" unicode="&#x540e;" d="M379 285 l0 -247 l427 0 l0 247 l-427 0 ZM312 348 l563 0 l0 -424 l-69 0 l0 52 l-427 0 l0 -53 l-67 0 l0 425 ZM949 559 l0 -64 l-726 0 l0 -6 q0 -72 -4 -135 q-6 -79 -19 -149 q-15 -81 -39 -149 q-28 -76 -69 -134 q-21 27 -55 46 q38 54 64 124 q22 62 35 137 q11 62 16 136 l2 64 q1 28 1 60 l0 256 q93 6 183 14 q97 8 183 18 q92 11 166 22 q81 13 136 27 l56 -54 q-62 -14 -143 -28 q-74 -12 -164 -22 q-82 -10 -174 -18 q-86 -8 -175 -14 l0 -131 l726 0 Z" /><glyph glyph-name="" unicode="&#x5411;" d="M367 399 l0 -208 l267 0 l0 208 l-267 0 ZM367 130 l0 -73 l-62 0 l0 402 l391 0 l0 -329 l-329 0 ZM901 18 q0 -65 -44 -81 q-23 -7 -72 -10 q-20 -1 -51 -1 l-63 0 q-5 31 -25 69 q49 -2 102 -2 q41 0 62 1 q25 1 25 25 l0 579 l-666 0 l0 -671 l-66 0 l0 736 l275 0 q43 91 64 174 l78 -20 l-34 -78 q-21 -47 -35 -76 l450 0 l0 -645 Z" /><glyph glyph-name="" unicode="&#x542b;" d="M748 200 l-498 0 l0 -166 l498 0 l0 166 ZM791 434 q-29 -35 -75 -85 l-83 -90 l184 0 l0 -332 l-69 0 l0 48 l-498 0 l0 -49 l-66 0 l0 333 l363 0 l65 69 q35 37 62 67 l-485 0 l0 60 l542 0 l12 4 l48 -25 ZM447 622 q43 -24 87 -53 q47 -31 72 -54 l-48 -39 q-57 54 -157 109 l46 37 ZM564 810 q-4 -6 -6 -9 l-6 -9 q-7 -10 -13 -17 q157 -179 425 -254 q-23 -22 -46 -59 q-248 82 -414 270 q-162 -183 -418 -277 q-17 32 -45 59 q146 48 267 132 q127 87 195 193 l61 -29 Z" /><glyph glyph-name="" unicode="&#x542f;" d="M225 630 l0 -147 l572 0 l0 147 l-572 0 ZM225 421 q-1 -64 -7 -122 q-7 -70 -20 -131 q-16 -71 -40 -129 q-27 -66 -64 -117 q-25 31 -54 46 q38 51 63 116 q23 58 36 127 q11 58 15 126 q4 53 4 117 l0 238 l344 0 q-9 26 -27 62 q-16 32 -35 64 l62 18 q45 -69 68 -130 l-40 -14 l333 0 l0 -271 l-638 0 ZM812 56 l0 191 l-473 0 l0 -191 l473 0 ZM879 309 l0 -379 l-67 0 l0 65 l-473 0 l0 -67 l-65 0 l0 381 l605 0 Z" /><glyph glyph-name="" unicode="&#x544a;" d="M255 236 l0 -202 l497 0 l0 202 l-497 0 ZM189 298 l631 0 l0 -383 l-68 0 l0 57 l-497 0 l0 -58 l-66 0 l0 384 ZM940 463 l0 -62 l-876 0 l0 62 l423 0 l0 165 l-251 0 q-43 -76 -97 -138 q-26 18 -60 36 q54 53 101 135 q45 77 75 164 l66 -15 q-10 -29 -24 -61 q-11 -26 -27 -59 l217 0 l0 146 l69 0 l0 -146 l308 0 l0 -62 l-308 0 l0 -165 l384 0 Z" /><glyph glyph-name="" unicode="&#x5458;" d="M262 611 l479 0 l0 121 l-479 0 l0 -121 ZM812 790 l0 -238 l-618 0 l0 238 l618 0 ZM531 331 l0 -94 q0 -46 -12 -81 q-17 -46 -56 -84 q-46 -44 -126 -80 q-90 -40 -224 -70 q-17 30 -42 55 q129 25 214 59 q75 30 117 68 q35 31 49 69 q10 28 10 66 l0 92 l70 0 ZM561 119 q95 -31 198 -70 q111 -42 173 -71 l-35 -56 q-145 74 -369 149 l33 48 ZM850 460 l0 -361 l-71 0 l0 299 l-550 0 l0 -305 l-68 0 l0 367 l689 0 Z" /><glyph glyph-name="" unicode="&#x548c;" d="M319 542 l179 0 l0 -62 l-179 0 l0 -27 q29 -31 89 -102 q62 -73 80 -96 l-41 -54 q-17 28 -56 81 q-37 50 -72 94 l0 -449 l-67 0 l0 453 q-84 -198 -185 -307 q-5 12 -17 31 l-20 30 q128 130 206 346 l-182 0 l0 62 l198 0 l0 172 l-169 -24 q-5 24 -18 53 q53 7 103 16 q55 9 103 19 q113 23 172 48 l46 -52 q-69 -25 -170 -47 l0 -185 ZM831 115 l0 564 l-233 0 l0 -564 l233 0 ZM898 743 l0 -768 l-67 0 l0 76 l-233 0 l0 -83 l-65 0 l0 775 l365 0 Z" /><glyph glyph-name="" unicode="&#x54c1;" d="M705 729 l-406 0 l0 -199 l406 0 l0 199 ZM772 466 l-538 0 l0 327 l538 0 l0 -327 ZM151 293 l0 -250 l220 0 l0 250 l-220 0 ZM88 357 l349 0 l0 -423 l-66 0 l0 45 l-220 0 l0 -55 l-63 0 l0 433 ZM854 43 l0 250 l-240 0 l0 -250 l240 0 ZM920 357 l0 -426 l-66 0 l0 48 l-240 0 l0 -55 l-64 0 l0 433 l370 0 Z" /><glyph glyph-name="" unicode="&#x54c8;" d="M140 678 l0 -427 l130 0 l0 427 l-130 0 ZM332 189 l-192 0 l0 -96 l-61 0 l0 646 l253 0 l0 -550 ZM505 269 l0 -233 l285 0 l0 233 l-285 0 ZM440 329 l417 0 l0 -405 l-67 0 l0 52 l-285 0 l0 -55 l-65 0 l0 408 ZM696 815 q-8 -18 -12 -28 q105 -206 274 -302 q-25 -18 -49 -55 q-149 100 -254 294 q-64 -122 -158 -216 l318 0 l0 -61 l-328 0 l0 51 q-50 -48 -94 -78 q-18 25 -47 47 q203 138 285 366 l65 -18 Z" /><glyph glyph-name="" unicode="&#x54cd;" d="M138 678 l0 -427 l127 0 l0 427 l-127 0 ZM322 189 l-184 0 l0 -96 l-59 0 l0 646 l243 0 l0 -550 ZM600 439 l0 -228 l128 0 l0 228 l-128 0 ZM600 160 l0 -57 l-49 0 l0 386 l226 0 l0 -329 l-177 0 ZM929 6 q0 -50 -32 -65 q-31 -14 -128 -12 q-5 28 -20 62 q28 -2 61 -2 l37 0 q17 1 17 18 l0 601 l-400 0 l0 -676 l-63 0 l0 735 l173 0 q37 87 57 171 l76 -17 q-18 -47 -32 -79 q-18 -44 -34 -75 l288 0 l0 -661 Z" /><glyph glyph-name="" unicode="&#x552e;" d="M244 166 l0 -139 l526 0 l0 139 l-526 0 ZM178 221 l660 0 l0 -298 l-68 0 l0 49 l-526 0 l0 -49 l-66 0 l0 298 ZM244 351 l264 0 l0 79 l-264 0 l0 -79 ZM508 672 l-264 0 l0 -72 l264 0 l0 72 ZM508 551 l-264 0 l0 -73 l264 0 l0 73 ZM896 351 l0 -53 l-652 0 l0 -41 l-65 0 l0 341 q-43 -56 -95 -103 q-8 10 -22 25 q-15 16 -25 23 q141 119 215 294 l63 -19 q-22 -46 -50 -95 l252 0 q-25 56 -49 95 l61 18 q36 -57 60 -113 l285 0 l0 -51 l-301 0 l0 -72 l253 0 l0 -49 l-253 0 l0 -73 l257 0 l0 -48 l-257 0 l0 -79 l323 0 Z" /><glyph glyph-name="" unicode="&#x5546;" d="M445 420 q-79 -93 -190 -170 q-5 10 -14 25 q-12 18 -19 26 q48 31 93 66 q49 39 81 75 l49 -22 ZM375 226 l0 -122 l247 0 l0 122 l-247 0 ZM375 53 l0 -47 l-58 0 l0 271 l361 0 l0 -224 l-303 0 ZM759 254 q-73 68 -197 155 l39 40 q57 -39 106 -76 q60 -44 91 -72 l-39 -47 ZM880 3 q0 -51 -38 -63 q-20 -6 -61 -8 q-18 -1 -45 -1 l-58 0 q-5 24 -21 51 q43 -1 87 -1 q37 0 51 1 q23 1 23 21 l0 460 l-630 0 l0 -537 l-64 0 l0 593 l460 0 q50 74 79 139 l70 -16 q-43 -73 -81 -123 l228 0 l0 -516 ZM337 664 q20 -32 35 -58 q20 -34 29 -54 l-59 -25 q-21 44 -64 116 l59 21 ZM936 726 l0 -58 l-871 0 l0 58 l419 0 q-18 50 -40 96 l63 17 l27 -58 q14 -32 23 -55 l379 0 Z" /><glyph glyph-name="" unicode="&#x5668;" d="M807 732 l-196 0 l0 -150 l196 0 l0 150 ZM871 524 l-321 0 l0 266 l321 0 l0 -266 ZM795 14 l0 157 l-188 0 l0 -157 l188 0 ZM384 171 l-177 0 l0 -157 l177 0 l0 157 ZM374 732 l-187 0 l0 -150 l187 0 l0 150 ZM667 360 q117 -98 296 -142 q-19 -17 -42 -53 q-27 8 -62 21 l0 -256 l-64 0 l0 25 l-188 0 l0 -30 l-62 0 l0 305 l217 0 q-109 58 -177 130 l-191 0 q-69 -73 -163 -130 l217 0 l0 -300 l-64 0 l0 25 l-177 0 l0 -30 l-61 0 l0 259 l-36 -16 q-20 -10 -37 -16 q-8 27 -36 50 q81 30 151 72 q66 39 118 86 l-251 0 l0 59 l310 0 q40 46 70 105 l-308 0 l0 266 l311 0 l0 -260 l2 4 l68 -12 q-27 -54 -64 -103 l294 0 q-50 35 -126 63 l36 37 q96 -34 147 -74 l-24 -26 l174 0 l0 -59 l-278 0 Z" /><glyph glyph-name="" unicode="&#x56db;" d="M836 98 l0 586 l-205 0 l0 -322 q0 -44 26 -44 l103 0 q15 0 29 1 q18 1 27 4 q2 -31 5 -57 q-8 -3 -25 -4 q-14 -1 -34 -1 l-113 0 q-81 0 -81 102 l0 321 l-147 0 q-1 -55 -3 -97 q-3 -48 -7 -86 q-9 -85 -29 -142 q-44 -123 -167 -181 q-11 25 -40 52 q110 51 148 160 q17 51 25 127 q4 34 6 78 l2 89 l-197 0 l0 -586 l677 0 ZM905 748 l0 -783 l-69 0 l0 69 l-677 0 l0 -76 l-66 0 l0 790 l812 0 Z" /><glyph glyph-name="" unicode="&#x56e2;" d="M779 495 l-160 0 l0 -328 q0 -51 -33 -64 q-27 -12 -129 -12 q-4 27 -22 60 q82 -2 103 0 q17 0 17 16 l0 251 q-61 -71 -142 -137 q-76 -62 -157 -108 l-19 22 q-13 14 -23 22 q90 49 173 120 q88 76 146 158 l-306 0 l0 61 l328 0 l0 129 l64 0 l0 -129 l160 0 l0 -61 ZM841 27 l0 702 l-685 0 l0 -702 l685 0 ZM911 791 l0 -867 l-70 0 l0 42 l-685 0 l0 -42 l-67 0 l0 867 l822 0 Z" /><glyph glyph-name="" unicode="&#x56ed;" d="M740 564 l-478 0 l0 55 l478 0 l0 -55 ZM728 150 q17 0 22 18 q6 18 7 84 q19 -16 53 -24 q-4 -79 -20 -106 q-15 -27 -57 -27 l-102 0 q-50 0 -67 17 q-16 16 -16 64 l0 215 l-124 0 q-9 -137 -49 -207 q-46 -80 -157 -120 q-12 27 -38 48 q100 34 140 101 q35 58 44 178 l-169 0 l0 57 l606 0 l0 -57 l-194 0 l0 -215 q0 -26 30 -26 l91 0 ZM848 33 l0 693 l-696 0 l0 -693 l696 0 ZM916 788 l0 -864 l-68 0 l0 46 l-696 0 l0 -46 l-66 0 l0 864 l830 0 Z" /><glyph glyph-name="" unicode="&#x56fd;" d="M779 191 l0 -57 l-551 0 l0 57 l236 0 l0 177 l-193 0 l0 58 l193 0 l0 151 l-221 0 l0 60 l515 0 l0 -60 l-232 0 l0 -151 l206 0 l0 -58 l-206 0 l0 -177 l253 0 ZM638 346 q72 -63 103 -112 l-45 -27 q-31 50 -102 115 l44 24 ZM841 36 l0 691 l-684 0 l0 -691 l684 0 ZM910 789 l0 -866 l-69 0 l0 51 l-684 0 l0 -51 l-67 0 l0 866 l820 0 Z" /><glyph glyph-name="" unicode="&#x56fe;" d="M310 201 q225 -25 402 -86 l-31 -50 q-73 27 -185 52 q-118 26 -218 37 l32 47 ZM407 322 q132 -27 234 -73 l-28 -47 q-97 50 -234 79 l28 41 ZM376 565 q46 -53 130 -103 q93 54 144 112 l-266 0 l-8 -9 ZM743 606 q-30 -48 -78 -94 q-45 -41 -103 -79 q122 -59 260 -83 q-21 -17 -38 -50 q-146 30 -276 100 q-141 -76 -300 -111 q-11 29 -31 54 q142 27 275 91 q-64 41 -114 95 q-48 -45 -97 -76 l-9 9 q-7 6 -12 12 l-25 20 q66 40 124 94 q61 57 97 117 l56 -18 q-14 -23 -42 -60 l264 0 l11 3 l38 -24 ZM846 27 l0 703 l-693 0 l0 -703 l693 0 ZM912 791 l0 -867 l-66 0 l0 43 l-693 0 l0 -43 l-64 0 l0 867 l823 0 Z" /><glyph glyph-name="" unicode="&#x2f1f;&#x571f;" d="M946 34 l0 -65 l-890 0 l0 65 l408 0 l0 413 l-344 0 l0 66 l344 0 l0 318 l69 0 l0 -318 l350 0 l0 -66 l-350 0 l0 -413 l413 0 Z" /><glyph glyph-name="" unicode="&#x5728;" d="M386 614 q-51 -112 -120 -204 l0 -482 l-67 0 l0 402 q-56 -62 -121 -107 q-11 28 -34 58 q83 60 154 149 q64 82 115 184 l-246 0 l0 64 l274 0 q33 74 55 157 l68 -17 l-23 -70 q-14 -38 -27 -70 l521 0 l0 -64 l-549 0 ZM935 10 l0 -62 l-602 0 l0 62 l267 0 l0 292 l-228 0 l0 62 l228 0 l0 197 l66 0 l0 -197 l230 0 l0 -62 l-230 0 l0 -292 l269 0 Z" /><glyph glyph-name="" unicode="&#x5730;" d="M239 232 q32 14 58 25 q31 14 59 25 l14 -59 l-160 -73 l-146 -64 l-26 66 q26 9 64 24 l74 31 l0 325 l-130 0 l0 63 l130 0 l0 229 l63 0 l0 -229 l120 0 l0 -63 l-120 0 l0 -300 ZM823 8 q43 0 58 28 q13 27 18 117 q27 -20 60 -27 q-9 -105 -33 -140 q-27 -38 -101 -38 l-252 0 q-84 0 -113 25 q-29 26 -29 102 l0 326 l-84 -36 l-26 58 l110 46 l0 275 l63 0 l0 -248 l144 61 l0 279 l63 0 l0 -253 l142 60 l27 24 l47 -19 l-3 -13 q0 -150 -2 -245 q-3 -107 -9 -133 q-8 -53 -54 -63 q-17 -4 -46 -5 q-10 -1 -24 -1 l-22 0 q-7 41 -16 58 l40 -2 l30 0 q25 0 31 28 q4 19 6 102 q2 74 2 204 l-149 -63 l0 -370 l-63 0 l0 344 l-144 -61 l0 -353 q0 -41 15 -54 q15 -13 65 -13 l249 0 Z" /><glyph glyph-name="" unicode="&#x5733;" d="M381 186 q-176 -72 -319 -127 l-22 68 l143 50 l0 350 l-127 0 l0 65 l127 0 l0 232 l66 0 l0 -232 l126 0 l0 -65 l-126 0 l0 -326 l121 45 l11 -60 ZM448 807 l65 0 l0 -338 q0 -39 -1 -71 q-1 -38 -3 -70 q-5 -76 -17 -138 q-15 -71 -40 -130 q-28 -66 -71 -121 q-20 20 -58 38 q41 51 67 112 q24 56 38 121 q12 57 16 128 q2 30 3 65 q1 29 1 66 l0 338 ZM647 759 l64 0 l0 -707 l-64 0 l0 707 ZM911 811 l0 -873 l-67 0 l0 873 l67 0 Z" /><glyph glyph-name="" unicode="&#x573a;" d="M352 239 l11 -60 q-73 -30 -157 -63 l-144 -56 l-22 67 l64 22 q42 14 75 26 l0 354 l-124 0 l0 63 l124 0 l0 232 l62 0 l0 -232 l112 0 l0 -63 l-112 0 l0 -331 l111 41 ZM934 512 q0 -1 -1 -13 l-1 -20 q-16 -260 -34 -373 q-17 -109 -44 -141 q-23 -28 -64 -31 q-17 -2 -46 -2 q-24 0 -59 2 q0 31 -18 63 q27 -3 57 -3 q11 -1 23 -1 l16 0 q24 -1 34 14 q22 22 37 119 q17 106 30 323 l-72 0 q-106 -355 -364 -525 q-21 21 -51 39 q128 75 217 200 q86 121 135 286 l-88 0 q-68 -191 -226 -304 q-16 17 -50 38 q147 95 212 266 l-82 0 q-73 0 -86 -11 q-1 5 -5 14 l-7 17 l-16 32 q32 4 99 48 q17 11 37 25 l55 40 q34 26 65 52 q38 30 69 59 l-331 0 l0 63 l401 0 l14 6 l50 -37 q-168 -151 -317 -245 l411 0 Z" /><glyph glyph-name="" unicode="&#x5747;" d="M381 277 l16 -56 l-175 -90 l-158 -79 l-24 66 q22 9 62 28 l73 33 l0 353 l-128 0 l0 63 l128 0 l0 229 l64 0 l0 -229 l123 0 l0 -63 l-123 0 l0 -323 l142 68 ZM799 257 q-91 -53 -192 -108 q-93 -51 -174 -94 l-27 61 q64 30 173 86 l102 53 q44 23 103 55 l15 -53 ZM667 299 q-69 76 -182 166 l41 38 q47 -36 102 -83 q50 -44 82 -76 l-43 -45 ZM924 638 q-5 -183 -11 -296 q-5 -123 -13 -198 q-13 -145 -42 -180 q-26 -35 -79 -39 q-26 -2 -72 -1 q-41 1 -91 4 q-4 36 -20 64 q46 -5 98 -6 q19 -1 38 -1 l26 0 q29 -1 43 15 q25 26 38 162 q13 131 22 450 l-328 0 q-59 -100 -129 -170 l-21 26 q-15 17 -24 25 q139 131 212 343 l61 -19 q-29 -78 -64 -143 l356 0 l0 -36 Z" /><glyph glyph-name="" unicode="&#x5757;" d="M369 229 q-76 -36 -158 -73 l-145 -64 l-26 66 l64 25 q42 16 74 30 l0 319 l-123 0 l0 63 l123 0 l0 229 l63 0 l0 -229 l113 0 l0 -63 l-113 0 l0 -293 l114 48 l14 -58 ZM653 489 q0 -65 -4 -114 l164 0 l0 227 l-160 0 l0 -113 ZM690 312 q75 -249 274 -331 q-26 -24 -46 -59 q-103 49 -174 144 q-69 90 -108 221 q-23 -114 -87 -198 q-74 -98 -210 -166 q-16 27 -45 50 q130 63 200 155 q60 78 81 184 l-204 0 l0 63 l213 0 q5 46 5 114 l0 113 l-187 0 l0 63 l187 0 l0 160 l64 0 l0 -160 l223 0 l0 -290 l71 0 l0 -63 l-257 0 Z" /><glyph glyph-name="" unicode="&#x5782;" d="M707 347 l-172 0 l0 -145 l172 0 l0 145 ZM467 202 l0 145 l-170 0 l0 -145 l170 0 ZM297 411 l170 0 l0 134 l-170 0 l0 -134 ZM535 545 l0 -134 l172 0 l0 134 l-172 0 ZM776 347 l0 -145 l126 0 l0 -62 l-367 0 l0 -126 l315 0 l0 -63 l-700 0 l0 63 l317 0 l0 126 l-367 0 l0 62 l130 0 l0 145 l-173 0 l0 64 l173 0 l0 134 l-123 0 l0 62 l360 0 l0 111 q-75 -6 -160 -10 q-75 -4 -155 -6 q-3 22 -16 58 q91 3 183 8 q98 6 186 14 q96 8 173 18 q84 11 142 23 l33 -57 q-133 -28 -318 -42 l0 -117 l360 0 l0 -62 l-119 0 l0 -134 l169 0 l0 -64 l-169 0 Z" /><glyph glyph-name="" unicode="&#x578b;" d="M888 381 q0 -53 -36 -67 q-20 -7 -58 -9 q-29 -2 -90 -2 q-5 28 -23 61 q99 -3 124 0 q19 1 19 18 l0 448 l64 0 l0 -449 ZM700 447 l-61 0 l0 332 l61 0 l0 -332 ZM263 592 l130 0 l0 143 l-130 0 l0 -143 ZM259 532 q-10 -73 -41 -129 q-38 -68 -108 -113 q-19 25 -44 46 q61 39 94 93 q27 45 36 103 l-124 0 l0 60 l129 0 l0 143 l-96 0 l0 59 l448 0 l0 -59 l-97 0 l0 -143 l117 0 l0 -60 l-117 0 l0 -218 l-63 0 l0 218 l-134 0 ZM949 21 l0 -62 l-899 0 l0 62 l423 0 l0 135 l-319 0 l0 61 l319 0 l0 118 l67 0 l0 -118 l305 0 l0 -61 l-305 0 l0 -135 l409 0 Z" /><glyph glyph-name="" unicode="&#x57ce;" d="M876 682 q-38 51 -120 116 l44 29 q81 -56 123 -111 l-47 -34 ZM341 169 q-32 -13 -72 -29 l-201 -79 l-22 66 q28 9 56 19 q32 11 64 23 l0 361 l-108 0 l0 62 l108 0 l0 232 l62 0 l0 -232 l99 0 l0 -62 l-99 0 l0 -339 l101 38 l12 -60 ZM929 495 q-52 -199 -141 -338 q39 -159 93 -159 q28 0 34 167 q22 -23 50 -34 q-8 -113 -26 -154 q-20 -42 -66 -42 q-82 0 -131 157 q-73 -96 -172 -163 q-4 5 -10 11 l-12 13 q-16 16 -26 22 q117 73 200 193 q-37 176 -48 451 l-242 0 l0 -140 l194 0 l-1 -28 q-1 -93 -3 -146 q-1 -61 -4 -98 q-5 -72 -19 -89 q-16 -23 -50 -26 q-31 -3 -91 0 q-4 39 -15 57 q23 -2 49 -3 l32 0 q19 0 25 10 q8 11 12 69 q4 56 6 197 l-135 0 l0 -48 q0 -61 -4 -112 q-5 -65 -17 -120 q-14 -64 -38 -117 q-26 -59 -64 -103 q-19 23 -49 42 q36 41 59 95 q21 47 34 105 q10 49 14 108 q3 44 3 102 l0 306 l302 0 q-3 77 -3 156 l63 0 l0 -79 q0 -44 1 -77 l216 0 l0 -61 l-214 0 q9 -220 35 -374 q63 119 97 260 l62 -10 Z" /><glyph glyph-name="" unicode="&#x57df;" d="M894 690 q-42 50 -123 109 l39 34 q36 -24 69 -52 q37 -30 55 -52 l-40 -39 ZM333 193 q-32 -16 -70 -35 l-132 -65 q-3 -1 -4 -2 l-61 -30 l-26 66 q21 8 54 23 l61 27 l0 352 l-108 0 l0 63 l108 0 l0 232 l63 0 l0 -232 l93 0 l0 -63 l-93 0 l0 -323 l97 46 l18 -59 ZM655 136 q-97 -29 -181 -53 q-93 -28 -161 -47 l-19 63 q32 7 75 18 l280 75 l6 -56 ZM549 471 l-138 0 l0 -176 l138 0 l0 176 ZM604 526 l0 -286 l-246 0 l0 286 l246 0 ZM925 513 q-55 -200 -149 -344 q40 -181 96 -181 q28 0 34 147 q10 -10 24 -20 l24 -14 q-8 -101 -26 -138 q-19 -38 -63 -38 q-88 0 -136 177 q-82 -103 -177 -168 q-3 4 -9 10 q-5 6 -13 12 q-13 12 -27 22 q121 77 207 201 q-17 87 -27 204 q-10 108 -15 242 l-340 0 l0 61 l339 0 q-3 74 -3 149 l64 0 l0 -76 q0 -41 1 -73 l215 0 l0 -61 l-214 0 q8 -215 30 -366 q65 116 103 266 l62 -12 Z" /><glyph glyph-name="" unicode="&#x57fa;" d="M532 9 l346 0 l0 -57 l-751 0 l0 57 l338 0 l0 112 l-209 0 l0 56 l209 0 l0 88 l67 0 l0 -88 l213 0 l0 -56 l-213 0 l0 -112 ZM316 356 l371 0 l0 76 l-371 0 l0 -76 ZM316 679 l0 -72 l371 0 l0 72 l-371 0 ZM316 483 l371 0 l0 73 l-371 0 l0 -73 ZM732 299 q91 -112 230 -162 q-28 -24 -43 -51 q-162 70 -256 213 l-319 0 q-97 -148 -260 -226 q-15 27 -43 51 q137 55 232 175 l-222 0 l0 57 l199 0 l0 323 l-154 0 l0 56 l154 0 l0 100 l66 0 l0 -100 l371 0 l0 100 l67 0 l0 -100 l153 0 l0 -56 l-153 0 l0 -323 l196 0 l0 -57 l-218 0 Z" /><glyph glyph-name="" unicode="&#x5802;" d="M139 459 l-61 0 l0 214 l176 0 q-34 65 -83 126 l58 24 q64 -73 92 -132 l-37 -18 l182 0 l0 163 l66 0 l0 -163 l189 0 l-44 17 q49 58 94 137 l68 -25 q-28 -38 -53 -69 q-29 -37 -51 -60 l190 0 l0 -214 l-64 0 l0 155 l-722 0 l0 -155 ZM289 358 l423 0 l0 117 l-423 0 l0 -117 ZM933 12 l0 -60 l-864 0 l0 60 l397 0 l0 127 l-311 0 l0 59 l311 0 l0 106 l-240 0 l0 226 l551 0 l0 -226 l-244 0 l0 -106 l325 0 l0 -59 l-325 0 l0 -127 l400 0 Z" /><glyph glyph-name="" unicode="&#x5854;" d="M472 672 l-147 0 l0 59 l147 0 l0 103 l62 0 l0 -103 l208 0 l0 103 l62 0 l0 -103 l148 0 l0 -59 l-148 0 l0 -99 l-62 0 l0 99 l-208 0 l0 -99 l-62 0 l0 99 ZM339 235 l13 -60 l-289 -115 l-22 67 q25 8 61 21 q27 9 71 25 l0 356 l-116 0 l0 64 l116 0 l0 232 l63 0 l0 -232 l102 0 l0 -64 l-102 0 l0 -333 l103 39 ZM483 191 l0 -172 l321 0 l0 172 l-321 0 ZM420 248 l449 0 l0 -325 l-65 0 l0 39 l-321 0 l0 -39 l-63 0 l0 325 ZM799 385 l0 -58 l-318 0 l0 58 l318 0 ZM681 593 q-12 -16 -19 -23 q54 -48 139 -101 q90 -56 169 -88 q-26 -21 -45 -51 q-74 35 -162 94 q-80 54 -137 105 q-124 -125 -292 -208 q-16 20 -47 49 q225 104 333 246 l61 -23 Z" /><glyph glyph-name="" unicode="&#x589e;" d="M516 694 q-23 51 -71 115 l56 23 q50 -59 73 -110 l-58 -28 ZM333 231 l12 -59 q-33 -14 -73 -30 l-204 -81 l-22 67 q24 7 57 18 l65 24 l0 360 l-110 0 l0 62 l110 0 l0 232 l62 0 l0 -232 l101 0 l0 -62 l-101 0 l0 -338 l103 39 ZM488 246 l0 -88 l302 0 l0 88 l-302 0 ZM790 27 l0 80 l-302 0 l0 -80 l302 0 ZM427 298 l426 0 l0 -371 l-63 0 l0 48 l-302 0 l0 -48 l-61 0 l0 371 ZM504 611 q55 -78 73 -142 l-42 -18 q-21 76 -71 145 l40 15 ZM689 464 q51 71 82 147 l46 -19 l-23 -38 q-12 -21 -23 -38 q-27 -43 -46 -68 l-36 16 ZM843 642 l-178 0 l0 -229 l178 0 l0 229 ZM430 413 l182 0 l0 229 l-182 0 l0 -229 ZM901 691 l0 -327 l-527 0 l0 327 l318 0 q55 77 85 146 l68 -24 q-47 -74 -84 -122 l140 0 Z" /><glyph glyph-name="" unicode="&#x5904;" d="M689 103 l-70 0 l0 730 l70 0 l0 -260 l25 14 q62 -66 120 -136 q64 -78 97 -129 l-58 -35 q-27 44 -79 112 q-50 64 -105 127 l0 -423 ZM251 615 q-11 -37 -29 -86 q38 -167 102 -274 q77 146 107 360 l-180 0 ZM506 667 q-33 -287 -139 -472 q79 -99 197 -139 q51 -17 112 -25 q51 -6 116 -6 l80 0 q63 0 86 1 q-19 -29 -27 -70 l-143 0 q-70 0 -127 7 q-65 9 -120 28 q-125 43 -210 146 q-96 -140 -238 -214 q-11 14 -25 28 q-17 17 -29 24 q155 77 250 221 q-62 98 -102 245 q-36 -81 -76 -133 q-22 22 -54 37 q59 77 104 210 q44 128 65 276 l70 -18 q-11 -66 -29 -136 l182 0 l13 3 l44 -13 Z" /><glyph glyph-name="" unicode="&#x5907;" d="M244 299 l0 -109 l222 0 l0 109 l-222 0 ZM752 299 l-219 0 l0 -109 l219 0 l0 109 ZM752 16 l0 119 l-219 0 l0 -119 l219 0 ZM466 16 l0 119 l-222 0 l0 -119 l222 0 ZM176 358 l646 0 l0 -431 l-70 0 l0 31 l-508 0 l0 -33 l-68 0 l0 433 ZM327 679 q68 -75 173 -128 q120 62 193 139 l-354 0 l-12 -11 ZM801 725 q-79 -118 -233 -206 q179 -75 399 -98 q-20 -22 -40 -61 q-118 16 -225 46 q-111 31 -202 75 q-99 -48 -215 -83 q-108 -33 -220 -53 q-12 39 -30 63 q102 15 200 42 q106 29 196 69 q-86 50 -150 117 q-64 -54 -153 -103 q-23 34 -46 48 q101 49 180 122 q70 64 110 135 l70 -15 q-19 -33 -52 -74 l356 0 l12 4 l43 -28 Z" /><glyph glyph-name="" unicode="&#x590d;" d="M246 681 q-66 -84 -151 -150 l-19 27 q-14 18 -23 26 q67 47 125 111 q61 69 95 141 l60 -19 q-3 -7 -5 -10 l-16 -30 q-13 -23 -25 -40 l610 0 l0 -56 l-651 0 ZM313 202 q69 -71 192 -121 q132 53 201 121 l-393 0 ZM284 371 l473 0 l0 72 l-473 0 l0 -72 ZM284 490 l473 0 l0 71 l-473 0 l0 -71 ZM811 229 q-74 -104 -225 -176 q79 -25 177 -41 q91 -15 195 -22 q-18 -20 -38 -59 q-117 11 -217 32 q-108 23 -195 57 q-97 -37 -217 -62 q-106 -22 -227 -34 q-6 26 -25 60 q105 8 200 25 q104 18 192 46 q-99 50 -161 118 q-56 -50 -125 -93 q-21 25 -47 44 q144 77 232 197 l-112 0 l0 289 l607 0 l0 -289 l-423 0 q-20 -31 -51 -67 l407 0 l12 4 l41 -29 Z" /><glyph glyph-name="" unicode="&#x590f;" d="M344 200 q60 -67 165 -116 q116 49 183 116 l-348 0 ZM242 350 l515 0 l0 64 l-515 0 l0 -64 ZM242 458 l515 0 l0 64 l-515 0 l0 -64 ZM242 566 l515 0 l0 62 l-515 0 l0 -62 ZM795 226 q-70 -100 -214 -171 q158 -55 383 -71 q-17 -19 -38 -60 q-248 22 -421 98 q-95 -37 -214 -62 q-106 -23 -224 -35 q-11 36 -25 55 q103 9 200 27 q106 20 194 50 q-89 50 -149 120 q-83 -53 -196 -95 q-15 29 -40 46 q101 34 183 82 q75 45 123 96 l-180 0 l0 366 l263 0 q11 35 17 61 l-378 0 l0 56 l843 0 l0 -56 l-393 0 q-7 -25 -22 -61 l317 0 l0 -366 l-388 0 q-20 -25 -53 -55 l358 0 l13 3 l41 -28 Z" /><glyph glyph-name="" unicode="&#x5916;" d="M475 685 l45 -15 q-39 -282 -152 -471 q-105 -175 -270 -267 q-20 30 -54 54 q182 95 288 288 q-69 66 -168 130 l40 44 q41 -26 81 -55 q44 -32 75 -59 q58 130 82 285 l-197 0 q-61 -166 -145 -269 q-7 8 -26 22 q-15 12 -29 21 q66 75 117 195 q47 110 76 248 l65 -12 q-7 -34 -17 -72 q-8 -32 -20 -70 l195 0 l14 3 ZM707 534 q71 -54 139 -114 q74 -66 113 -111 l-53 -46 q-34 41 -99 102 q-60 56 -125 109 l0 -549 l-68 0 l0 910 l68 0 l0 -321 l25 20 Z" /><glyph glyph-name="" unicode="&#x591a;" d="M789 723 q-46 -79 -123 -149 q-71 -64 -166 -117 q-88 -49 -190 -86 q-96 -35 -195 -56 q-13 37 -32 59 q177 31 342 113 q-51 46 -122 88 l48 35 q35 -20 69 -43 q38 -26 63 -48 q132 75 205 169 l-287 0 q-52 -43 -109 -79 q-62 -39 -129 -70 q-13 23 -46 47 q113 48 208 120 q84 63 135 131 l73 -15 q-28 -35 -67 -74 l268 0 l12 3 l43 -28 ZM939 376 q-50 -106 -139 -188 q-83 -77 -198 -132 q-105 -51 -236 -85 q-118 -31 -257 -47 q-8 36 -27 63 q136 14 253 42 q129 31 231 80 q-23 24 -58 54 q-31 26 -64 51 l55 31 q70 -49 127 -105 q143 83 216 200 l-280 0 q-131 -111 -315 -183 q-16 27 -42 50 q143 52 257 133 q102 72 160 152 l74 -16 q-17 -22 -32 -38 q-18 -21 -36 -38 l254 0 l13 4 l44 -28 Z" /><glyph glyph-name="" unicode="&#x2f24;&#x5927;" d="M557 479 q55 -175 152 -299 q104 -133 244 -192 q-27 -25 -49 -62 q-142 67 -246 202 q-97 127 -157 309 q-19 -79 -48 -147 q-32 -77 -78 -140 q-50 -70 -116 -125 q-71 -59 -161 -100 q-17 28 -50 55 q91 39 161 97 q65 53 114 121 q43 62 74 137 q26 67 43 144 l-374 0 l0 68 l386 0 q6 38 9 79 q3 36 5 76 q1 30 1 69 l1 63 l70 0 l-3 -133 q-2 -40 -5 -75 q-4 -41 -9 -79 l417 0 l0 -68 l-381 0 Z" /><glyph glyph-name="" unicode="&#x5934;" d="M424 618 q-35 29 -101 64 q-63 34 -125 58 l37 48 q63 -23 125 -54 q67 -34 102 -62 l-38 -54 ZM333 434 q-81 69 -224 126 l41 46 q144 -53 226 -121 l-43 -51 ZM571 219 q226 -106 366 -230 l-45 -50 q-60 56 -157 120 q-94 61 -199 114 l35 46 ZM942 378 l0 -63 l-384 0 q-42 -145 -143 -235 q-112 -101 -314 -152 q-10 25 -39 56 q186 45 290 130 q95 77 136 201 l-427 0 l0 63 l444 0 q10 44 15 98 q6 47 8 107 q2 48 3 116 l1 125 l68 0 l-1 -123 q-1 -66 -3 -115 q-3 -60 -8 -108 q-6 -54 -15 -100 l369 0 Z" /><glyph glyph-name="" unicode="&#x593a;" d="M454 623 q-60 -83 -156 -141 q-88 -53 -215 -89 q-5 10 -19 29 l-23 28 q221 49 331 173 l-313 0 l0 63 l358 0 q39 68 58 148 l68 -11 q-16 -69 -51 -137 l450 0 l0 -63 l-317 0 q120 -123 336 -168 q-28 -28 -43 -58 q-113 29 -209 87 q-101 61 -159 139 l-96 0 ZM266 274 q112 -103 164 -204 l-55 -38 q-48 98 -161 209 l52 33 ZM721 350 l216 0 l0 -63 l-216 0 l0 -275 q0 -59 -44 -74 q-40 -13 -190 -11 q-4 26 -24 66 q114 -5 165 -2 q25 1 25 22 l0 274 l-580 0 l0 63 l580 0 l0 91 l68 0 l0 -91 Z" /><glyph glyph-name="" unicode="&#x5947;" d="M834 453 q-149 74 -362 151 q-86 -117 -352 -154 q-8 23 -30 52 q158 21 241 64 q78 41 112 116 l-336 0 l0 59 l355 0 q9 36 16 95 l69 0 q-6 -52 -15 -95 l367 0 l0 -59 l-384 0 q-8 -20 -12 -28 q218 -76 379 -153 l-48 -48 ZM225 240 l0 -144 l264 0 l0 144 l-264 0 ZM225 41 l0 -66 l-64 0 l0 320 l392 0 l0 -254 l-328 0 ZM946 379 l-140 0 l0 -371 q0 -58 -45 -73 q-25 -7 -74 -9 l-53 -2 l-64 0 q-6 28 -25 64 l56 -2 l112 0 q25 3 25 23 l0 370 l-681 0 l0 61 l889 0 l0 -61 Z" /><glyph glyph-name="" unicode="&#x5957;" d="M427 675 q-49 -61 -106 -109 l375 0 q-58 47 -110 109 l-159 0 ZM328 512 l0 -67 l416 0 l0 -49 l-416 0 l0 -68 l416 0 l0 -49 l-416 0 l0 -71 l610 0 l0 -57 l-530 0 q-75 -80 -146 -131 l449 21 q-34 36 -75 73 l55 28 q54 -49 100 -94 q57 -55 84 -89 l-57 -34 q-28 34 -60 67 l-305 -17 q-119 -6 -172 -10 q-57 -4 -82 -7 q-21 -3 -33 -8 l-4 14 q-2 9 -5 17 q-7 22 -12 33 q24 3 59 31 q19 14 48 40 q38 33 69 66 l-257 0 l0 57 l197 0 l0 310 q-85 -60 -176 -101 q-18 30 -43 48 q93 40 173 96 q73 51 130 114 l-273 0 l0 58 l320 0 q36 51 58 103 l71 -13 q-13 -26 -24 -45 q-14 -24 -28 -45 l463 0 l0 -58 l-272 0 q128 -131 301 -199 q-26 -22 -44 -51 q-90 41 -177 107 l0 -20 l-412 0 Z" /><glyph glyph-name="" unicode="&#x597d;" d="M205 568 q-13 -65 -30 -133 q-15 -60 -31 -119 q67 -43 119 -86 q68 142 90 338 l-148 0 ZM423 622 q-25 -265 -107 -434 q81 -69 117 -116 l-45 -56 q-36 49 -106 111 q-79 -129 -210 -201 q-19 33 -42 52 q121 61 202 192 q-79 66 -162 120 q37 113 72 278 l-97 0 l0 62 l109 0 q22 111 34 205 l64 -4 q-12 -92 -34 -201 l152 0 l12 2 l41 -10 ZM955 348 l-224 0 l0 -342 q0 -56 -41 -71 q-37 -12 -153 -11 q-6 27 -26 63 q39 -1 82 -1 l48 0 q22 1 22 20 l0 342 l-235 0 l0 63 l235 0 l0 118 q81 66 151 169 l-340 0 l0 61 l386 0 l16 4 l46 -33 q-79 -122 -191 -218 l0 -101 l224 0 l0 -63 Z" /><glyph glyph-name="" unicode="&#x5982;" d="M240 568 q-30 -138 -65 -254 q73 -50 135 -98 q73 142 95 352 l-165 0 ZM475 624 q-22 -283 -113 -451 q71 -57 112 -108 l-45 -55 q-32 42 -103 105 q-88 -127 -233 -192 q-21 36 -41 56 q137 53 223 180 q-80 68 -174 131 q42 122 75 278 l-125 0 l0 62 l139 0 q11 50 20 106 l14 99 l65 -5 q-6 -41 -16 -97 l-19 -103 l168 0 l12 2 l41 -8 ZM854 87 l0 577 l-258 0 l0 -577 l258 0 ZM919 727 l0 -763 l-65 0 l0 60 l-258 0 l0 -75 l-63 0 l0 778 l386 0 Z" /><glyph glyph-name="" unicode="&#x59ff;" d="M289 655 q-70 60 -195 108 l33 45 q124 -44 197 -102 l-35 -51 ZM320 520 q-122 -69 -242 -135 l-24 59 q44 21 114 58 q61 32 136 74 l16 -56 ZM383 235 q-16 -22 -36 -48 l-35 -43 q110 -21 230 -49 q84 53 132 140 l-291 0 ZM661 677 q-4 -25 -12 -50 q62 -185 301 -219 q-20 -18 -38 -55 q-211 41 -289 202 q-30 -61 -79 -103 q-53 -46 -135 -76 l57 -14 l-40 -67 l513 0 l0 -60 l-192 0 q-43 -97 -123 -160 q193 -48 321 -97 l-65 -51 q-128 53 -326 103 q-83 -44 -202 -70 q-113 -25 -269 -37 q-8 33 -27 60 q262 14 404 71 q-66 15 -128 28 q-69 15 -134 27 q53 56 105 126 l-243 0 l0 60 l285 0 q25 36 46 74 q-35 -11 -72 -20 q-11 27 -35 53 q155 33 228 105 q34 33 54 77 q19 39 29 93 l-125 0 q-45 -70 -92 -116 q-23 24 -51 40 q101 88 151 234 l62 -15 l-17 -44 q-11 -24 -21 -42 l369 0 l11 4 l48 -18 q-13 -29 -22 -47 l-22 -46 q-26 -51 -45 -80 l-57 20 q29 47 56 110 l-179 0 Z" /><glyph glyph-name="" unicode="&#x5a92;" d="M195 567 q-13 -71 -29 -144 q-14 -67 -29 -128 l47 -36 l46 -39 q53 138 69 347 l-104 0 ZM327 24 q-28 42 -76 90 q-64 -121 -171 -188 q-19 33 -40 53 q100 56 164 181 q-36 33 -68 59 q-36 30 -68 53 q34 113 67 295 l-80 0 l0 61 l91 0 q6 36 8 54 q5 30 8 53 q8 58 12 100 l60 -3 q-11 -99 -29 -204 l109 0 l11 2 l39 -6 q-16 -283 -84 -449 q56 -52 94 -105 l-47 -46 ZM540 421 l247 0 l0 98 l-247 0 l0 -98 ZM540 667 l0 -95 l247 0 l0 95 l-247 0 ZM735 214 q98 -140 232 -207 q-30 -25 -47 -53 q-123 76 -222 220 l0 -250 l-64 0 l0 252 q-97 -152 -236 -227 q-24 34 -46 53 q146 66 241 212 l-203 0 l0 58 l244 0 l0 93 l-156 0 l0 302 l-92 0 l0 58 l92 0 l0 111 l62 0 l0 -111 l247 0 l0 111 l64 0 l0 -111 l91 0 l0 -58 l-91 0 l0 -302 l-153 0 l0 -93 l243 0 l0 -58 l-206 0 Z" /><glyph glyph-name="" unicode="&#x5b57;" d="M150 529 l-65 0 l0 200 l396 0 q-24 52 -54 92 l64 21 q48 -65 68 -113 l356 0 l0 -200 l-68 0 l0 137 l-697 0 l0 -137 ZM927 235 l-393 0 l0 -227 q0 -56 -44 -71 q-23 -8 -64 -10 q-19 -2 -46 -2 l-57 0 q-10 37 -29 66 q110 -3 148 -1 q23 0 23 19 l0 226 l-393 0 l0 63 l393 0 l0 64 q96 46 184 123 l-414 0 l0 63 l481 0 l15 4 l45 -35 q-98 -101 -242 -179 l0 -40 l393 0 l0 -63 Z" /><glyph glyph-name="" unicode="&#x5b58;" d="M391 642 q-52 -121 -131 -231 l0 -485 l-66 0 l0 406 q-57 -63 -123 -110 q-8 16 -16 30 l-19 29 q89 63 164 161 q68 89 119 200 l-252 0 l0 63 l278 0 q13 30 24 65 q10 30 20 65 l68 -16 q-20 -64 -40 -114 l517 0 l0 -63 l-543 0 ZM953 202 l-272 0 l0 -196 q0 -57 -40 -71 q-22 -7 -67 -9 q-19 -1 -48 -1 l-59 0 q-5 33 -21 63 q109 -3 146 -1 q22 1 22 20 l0 195 l-281 0 l0 62 l281 0 l0 85 q83 44 157 113 l-352 0 l0 61 l414 0 l13 4 l43 -34 q-82 -91 -208 -166 l0 -63 l272 0 l0 -62 Z" /><glyph glyph-name="" unicode="&#x5b66;" d="M148 475 l-63 0 l0 193 l167 0 q-29 59 -89 132 l55 25 q68 -74 96 -137 l-38 -20 l229 0 q-21 71 -78 154 l58 21 q63 -86 82 -155 l-49 -20 l167 0 q60 75 105 161 l66 -24 q-21 -32 -49 -70 q-25 -33 -52 -67 l168 0 l0 -193 l-65 0 l0 133 l-710 0 l0 -133 ZM942 211 l-410 0 l0 -202 q0 -58 -46 -72 q-24 -8 -70 -10 q-35 -2 -113 -2 q-3 13 -12 33 q-6 14 -16 32 q127 -5 164 -1 q26 1 26 20 l0 202 l-402 0 l0 62 l402 0 l0 74 q96 34 184 94 l-421 0 l0 60 l497 0 l14 3 l44 -33 q-47 -42 -116 -84 q-65 -39 -135 -69 l0 -45 l410 0 l0 -62 Z" /><glyph glyph-name="" unicode="&#x5b83;" d="M724 14 q58 0 76 30 q17 28 25 129 q25 -18 66 -28 q-11 -118 -41 -155 q-32 -41 -126 -41 l-317 0 q-103 0 -139 26 q-37 26 -37 102 l0 457 l69 0 l0 -233 q127 35 236 75 q121 44 191 83 l56 -51 q-90 -44 -225 -90 q-119 -40 -258 -76 l0 -165 q0 -39 20 -51 q20 -12 85 -12 l319 0 ZM906 699 l0 -201 l-68 0 l0 137 l-682 0 l0 -137 l-66 0 l0 201 l399 0 q-22 62 -60 124 l64 19 q21 -34 40 -71 q20 -40 29 -66 l-19 -6 l363 0 Z" /><glyph glyph-name="" unicode="&#x5b87;" d="M142 513 l-65 0 l0 214 l395 0 q-11 26 -20 44 q-12 25 -23 42 l65 19 q36 -56 55 -105 l374 0 l0 -214 l-68 0 l0 153 l-713 0 l0 -153 ZM928 252 l-390 0 l0 -237 q0 -59 -46 -74 q-24 -8 -70 -10 l-51 -2 l-62 0 q-6 30 -28 66 q26 -1 54 -1 l108 0 q26 1 26 22 l0 236 l-394 0 l0 63 l394 0 l0 165 l-261 0 l0 63 l581 0 l0 -63 l-251 0 l0 -165 l390 0 l0 -63 Z" /><glyph glyph-name="" unicode="&#x5b89;" d="M165 522 l-67 0 l0 197 l370 0 q-22 51 -49 101 l67 17 q38 -70 59 -118 l357 0 l0 -197 l-69 0 l0 135 l-668 0 l0 -135 ZM384 383 q-43 -72 -83 -127 q117 -39 222 -81 q90 83 138 208 l-277 0 ZM735 383 q-49 -137 -145 -235 q199 -83 316 -157 l-55 -58 q-120 80 -318 165 q-76 -59 -179 -102 q-95 -39 -223 -68 q-12 28 -42 60 q238 44 376 139 q-74 30 -135 53 q-72 27 -133 45 l1 1 q49 60 108 157 l-233 0 l0 64 l271 0 q48 83 83 164 l69 -15 q-30 -68 -74 -149 l508 0 l0 -64 l-195 0 Z" /><glyph glyph-name="" unicode="&#x5b8c;" d="M152 504 l-66 0 l0 215 l392 0 q-24 57 -54 106 l66 18 q44 -70 66 -124 l355 0 l0 -215 l-68 0 l0 151 l-691 0 l0 -151 ZM226 481 l0 62 l546 0 l0 -62 l-546 0 ZM843 2 q29 0 38 24 q8 23 11 110 q21 -16 61 -26 q-6 -102 -27 -135 q-20 -34 -78 -34 l-157 0 q-65 0 -88 19 q-23 20 -23 75 l0 260 l-181 0 q-6 -84 -22 -140 q-17 -62 -50 -105 q-69 -88 -244 -127 q-10 30 -35 54 q161 33 221 108 q29 36 44 90 q12 46 18 120 l-271 0 l0 63 l879 0 l0 -63 l-292 0 l0 -259 q0 -34 50 -34 l146 0 Z" /><glyph glyph-name="" unicode="&#x5b9a;" d="M152 511 l-65 0 l0 211 l392 0 q-19 50 -49 101 l65 18 q39 -62 60 -119 l358 0 l0 -211 l-67 0 l0 147 l-694 0 l0 -147 ZM533 21 q37 -8 83 -11 q39 -3 89 -3 l251 1 q-19 -29 -25 -67 l-229 0 q-86 0 -148 8 q-71 10 -125 32 q-119 49 -183 173 q-52 -147 -151 -233 q-24 26 -54 45 q81 63 128 170 q44 99 61 241 l67 -7 q-4 -31 -11 -67 q-5 -28 -13 -64 q29 -79 79 -129 q45 -46 113 -71 l0 425 l-254 0 l0 64 l585 0 l0 -64 l-263 0 l0 -170 l301 0 l0 -63 l-301 0 l0 -210 Z" /><glyph glyph-name="" unicode="&#x5b9e;" d="M161 521 l-66 0 l0 197 l392 0 q-27 61 -54 102 l65 21 q43 -63 67 -123 l342 0 l0 -197 l-69 0 l0 134 l-677 0 l0 -134 ZM390 441 q-48 58 -146 116 l40 42 q98 -54 149 -111 l-43 -47 ZM184 447 q45 -25 88 -55 q46 -33 69 -58 l-40 -50 q-23 26 -69 61 q-43 32 -87 58 l39 44 ZM572 165 q220 -84 356 -183 l-43 -51 q-124 99 -345 186 l32 48 ZM932 253 l0 -58 l-418 0 q-43 -100 -132 -163 q-96 -67 -259 -104 q-12 31 -39 58 q144 29 230 82 q82 49 124 127 l-364 0 l0 58 l390 0 q22 63 32 157 q4 39 7 92 l4 102 l69 0 l-4 -100 q-3 -50 -7 -92 q-10 -92 -29 -159 l396 0 Z" /><glyph glyph-name="" unicode="&#x5ba2;" d="M146 562 l-65 0 l0 182 l402 0 q-19 39 -47 83 l64 17 q29 -40 60 -100 l359 0 l0 -182 l-67 0 l0 120 l-706 0 l0 -120 ZM751 230 q-134 37 -249 100 q-112 -61 -234 -100 l483 0 ZM706 17 l0 156 l-406 0 l0 -156 l406 0 ZM347 529 q57 -70 156 -128 q104 62 164 131 l-316 0 l-4 -3 ZM770 560 q-73 -108 -205 -193 q168 -80 395 -112 q-10 -9 -22 -29 q-5 -7 -10 -17 q-3 -3 -5 -8 l-4 -7 q-76 11 -146 30 l0 -297 l-67 0 l0 33 l-406 0 l0 -34 l-64 0 l0 293 q-38 -12 -82 -23 l-82 -19 q-11 33 -32 59 q103 19 204 51 q107 35 196 80 q-84 57 -139 122 q-38 -30 -75 -54 q-43 -28 -87 -49 q-19 29 -45 46 q97 45 175 109 q69 58 110 120 l72 -13 q-26 -36 -48 -62 l311 0 l12 3 l44 -29 Z" /><glyph glyph-name="" unicode="&#x5bb6;" d="M154 543 l-65 0 l0 202 l376 0 q-18 45 -39 76 l68 20 q34 -54 51 -96 l373 0 l0 -202 l-67 0 l0 140 l-697 0 l0 -140 ZM846 436 q-76 -61 -159 -116 q78 -225 274 -300 q-23 -18 -44 -54 q-95 42 -169 128 q-70 82 -112 193 q-11 -8 -26 -17 l-26 -15 q26 -94 12 -181 q-14 -83 -57 -115 q-38 -32 -99 -33 q-38 0 -86 3 q0 33 -18 62 q60 -5 91 -5 q43 0 65 20 q59 41 41 185 q-186 -145 -432 -218 q-12 30 -35 57 q120 28 250 91 q129 64 204 132 q-14 43 -29 76 q-71 -49 -179 -100 q-101 -47 -194 -77 q-14 29 -34 53 q95 23 204 71 q112 49 176 98 q-17 29 -51 64 q-65 -36 -144 -68 q-71 -29 -147 -53 q-16 32 -37 53 q102 26 193 63 q100 41 168 89 l-236 0 l0 58 l579 0 l0 -58 l-255 0 q-30 -26 -72 -55 q69 -66 105 -159 q134 86 224 171 l55 -43 Z" /><glyph glyph-name="" unicode="&#x5bb9;" d="M152 566 l-65 0 l0 176 l393 0 q-17 41 -43 83 l68 17 q30 -45 52 -100 l356 0 l0 -176 l-67 0 l0 114 l-694 0 l0 -114 ZM634 628 q73 -42 146 -96 q77 -56 118 -98 l-47 -45 q-93 100 -260 201 l43 38 ZM397 608 q-48 -62 -121 -123 q-67 -56 -138 -98 q-20 26 -47 51 q70 36 134 85 q67 52 110 106 l62 -21 ZM728 256 q-127 78 -227 188 q-88 -105 -213 -188 l440 0 ZM711 18 l0 178 l-424 0 l0 -178 l424 0 ZM556 516 q-2 -3 -5 -6 l-14 -20 q79 -91 191 -162 q50 -32 110 -61 q53 -26 117 -52 q-28 -24 -43 -55 q-32 14 -68 32 q-27 13 -66 34 l0 -298 l-67 0 l0 30 l-424 0 l0 -35 l-64 0 l0 293 q-67 -40 -138 -69 q-12 17 -20 27 q-12 17 -23 26 q141 54 261 143 q124 92 195 200 l58 -27 Z" /><glyph glyph-name="" unicode="&#x5bbf;" d="M153 584 l-64 0 l0 161 l382 0 q-16 36 -39 77 l68 19 q27 -44 50 -96 l366 0 l0 -146 l-67 0 l0 88 l-696 0 l0 -103 ZM332 610 q-32 -76 -83 -156 l0 -530 l-64 0 l0 440 q-52 -66 -104 -111 l-19 27 q-15 19 -24 28 q146 121 233 322 l61 -20 ZM810 356 l-360 0 l0 -124 l360 0 l0 124 ZM810 41 l0 135 l-360 0 l0 -135 l360 0 ZM661 519 q-10 -33 -16 -54 l-16 -51 l248 0 l0 -486 l-67 0 l0 55 l-360 0 l0 -60 l-64 0 l0 491 l178 0 q13 45 25 105 l-245 0 l0 61 l586 0 l0 -61 l-269 0 Z" /><glyph glyph-name="" unicode="&#x5bc6;" d="M146 556 l-65 0 l0 192 l392 0 q-9 40 -26 87 l63 10 q20 -45 31 -97 l381 0 l0 -192 l-67 0 l0 132 l-709 0 l0 -132 ZM528 517 q-63 62 -171 112 l34 39 q109 -48 173 -107 l-36 -44 ZM241 526 q-14 -27 -26 -49 q-16 -27 -32 -50 q-38 -56 -78 -89 l-54 33 q42 31 80 84 q32 44 56 95 l54 -24 ZM434 285 q-92 0 -113 27 q-56 -24 -118 -45 q-56 -20 -121 -39 q-16 30 -40 56 q71 18 134 39 q70 22 130 47 l0 197 l60 0 l0 -169 q102 48 182 106 q85 61 142 131 l57 -28 q-65 -79 -159 -147 q-87 -63 -199 -117 q15 -3 48 -3 l209 0 q36 0 47 20 q11 20 14 94 q23 -15 57 -23 q-7 -89 -28 -117 q-23 -29 -86 -29 l-216 0 ZM776 204 l66 0 l0 -279 l-66 0 l0 46 l-610 0 l0 226 l65 0 l0 -163 l234 0 l0 217 l67 0 l0 -217 l244 0 l0 170 ZM777 546 q118 -98 173 -184 l-51 -37 q-23 39 -72 93 q-47 52 -97 95 l47 33 Z" /><glyph glyph-name="" unicode="&#x5bcc;" d="M218 229 l0 -84 l246 0 l0 84 l-246 0 ZM790 229 l-261 0 l0 -84 l261 0 l0 84 ZM790 11 l0 87 l-261 0 l0 -87 l261 0 ZM218 11 l246 0 l0 87 l-246 0 l0 -87 ZM154 281 l701 0 l0 -353 l-65 0 l0 31 l-572 0 l0 -36 l-64 0 l0 358 ZM789 580 l-577 0 l0 49 l577 0 l0 -49 ZM282 391 l431 0 l0 81 l-431 0 l0 -81 ZM220 342 l0 179 l557 0 l0 -179 l-557 0 ZM917 752 l0 -183 l-65 0 l0 125 l-703 0 l0 -125 l-63 0 l0 183 l385 0 l-41 75 l67 17 q13 -19 29 -46 q12 -20 25 -46 l366 0 Z" /><glyph glyph-name="" unicode="&#x5bdd;" d="M139 605 l-61 0 l0 158 l397 0 q-17 40 -34 69 l68 14 q29 -40 45 -83 l374 0 l0 -158 l-63 0 l0 101 l-726 0 l0 -101 ZM862 198 l0 91 l-470 0 l0 -91 l-57 0 l0 140 l587 0 l0 -140 l-60 0 ZM791 439 l0 60 l-381 0 l0 42 l381 0 l0 57 l-407 0 l0 46 l468 0 l0 -252 l-474 0 l0 47 l413 0 ZM147 338 q-19 84 -75 194 l52 23 q58 -111 77 -192 l-54 -25 ZM223 657 l61 0 l0 -731 l-61 0 l0 261 l-157 -91 l-29 58 q31 14 85 42 l101 54 l0 407 ZM511 182 q45 -58 129 -107 q83 49 126 107 l-255 0 ZM852 215 q-50 -98 -156 -167 q109 -48 252 -65 q-24 -28 -36 -52 q-156 23 -273 84 q-63 -32 -139 -55 q-70 -22 -149 -35 q-9 26 -29 52 q70 9 135 27 q69 18 126 44 q-87 56 -135 132 l6 2 l-38 0 l0 49 l388 0 l11 3 l37 -19 Z" /><glyph glyph-name="" unicode="&#x2f28;&#x5bf8;" d="M229 450 q133 -133 189 -250 l-60 -39 q-53 120 -184 256 l55 33 ZM945 556 l-236 0 l0 -528 q0 -76 -55 -92 q-28 -8 -86 -11 q-49 -3 -138 -2 q-9 37 -30 74 q63 -2 129 -2 q52 0 79 1 q32 0 32 31 l0 529 l-584 0 l0 65 l584 0 l0 214 l69 0 l0 -214 l236 0 l0 -65 Z" /><glyph glyph-name="" unicode="&#x5bf9;" d="M436 707 q-34 -228 -119 -404 q69 -103 115 -194 l-51 -47 q-36 75 -98 175 q-86 -152 -201 -241 q-21 34 -48 53 q120 84 208 253 q-44 67 -88 130 q-47 68 -89 123 l46 39 q38 -49 82 -109 q39 -55 81 -117 q61 136 89 291 l-307 0 l0 60 l326 0 l11 3 l43 -15 ZM955 549 l-122 0 l0 -532 q0 -59 -41 -77 q-35 -15 -163 -13 q-8 38 -23 67 q40 -1 87 -1 l50 0 q24 1 24 23 l0 533 l-290 0 l0 64 l290 0 l0 220 l66 0 l0 -220 l122 0 l0 -64 ZM623 171 q-12 48 -46 118 q-33 67 -72 127 l55 24 q92 -133 122 -240 l-59 -29 Z" /><glyph glyph-name="" unicode="&#x5c01;" d="M498 437 l-449 0 l0 61 l199 0 l0 145 l-168 0 l0 61 l168 0 l0 132 l64 0 l0 -132 l165 0 l0 -61 l-165 0 l0 -145 l186 0 l0 -61 ZM514 109 l3 -62 l-466 -81 l-10 67 q37 5 95 14 l112 17 l0 167 l-175 0 l0 61 l175 0 l0 121 l64 0 l0 -121 l174 0 l0 -61 l-174 0 l0 -156 l202 34 ZM954 536 l-99 0 l0 -521 q0 -59 -41 -75 q-31 -13 -161 -13 q-5 27 -25 64 q43 -1 86 -1 q35 0 51 1 q24 0 24 24 l0 521 l-277 0 l0 64 l277 0 l0 227 l66 0 l0 -227 l99 0 l0 -64 ZM655 189 q-35 101 -99 231 l57 21 q29 -57 58 -120 q30 -66 45 -107 l-61 -25 Z" /><glyph glyph-name="" unicode="&#x2f29;&#x5c0f;" d="M539 820 l0 -798 q0 -68 -48 -85 q-39 -13 -187 -13 q-9 36 -27 72 l54 -2 l110 0 q28 1 28 28 l0 798 l70 0 ZM769 596 q67 -105 122 -226 q57 -124 76 -211 l-69 -32 q-41 199 -190 443 l61 26 ZM281 573 q-14 -59 -31 -114 q-19 -63 -41 -118 q-25 -62 -53 -112 q-31 -55 -65 -96 q-28 24 -58 40 q33 38 63 90 q26 48 49 106 q21 53 38 111 q15 53 25 107 l73 -14 Z" /><glyph glyph-name="" unicode="&#x5c14;" d="M261 606 q-66 -116 -142 -197 q-31 27 -60 40 q71 68 135 173 q60 101 101 214 l66 -17 q-13 -36 -30 -76 q-15 -33 -35 -73 l586 0 l12 4 l49 -19 q-28 -66 -60 -123 q-35 -66 -66 -106 l-57 22 q47 61 89 158 l-588 0 ZM337 395 q-77 -195 -209 -330 q-25 23 -57 41 q125 113 200 306 l66 -17 ZM473 550 l68 0 l0 -538 q0 -61 -43 -76 q-23 -7 -68 -10 q-20 -1 -49 -1 l-61 0 q-4 23 -23 66 q111 -3 152 -1 q24 1 24 22 l0 538 ZM716 409 q61 -77 116 -161 q59 -91 86 -150 l-61 -31 q-27 62 -84 153 q-55 89 -113 165 l56 24 Z" /><glyph glyph-name="" unicode="&#x5c16;" d="M871 445 q-65 129 -212 272 l54 29 q65 -60 126 -135 q62 -76 92 -132 l-60 -34 ZM531 459 l-69 0 l0 376 l69 0 l0 -376 ZM331 728 q-78 -172 -202 -291 l-25 21 q-18 15 -27 21 q124 109 191 266 l63 -17 ZM549 263 q100 -229 408 -279 q-23 -23 -40 -59 q-309 61 -419 305 q-42 -116 -130 -186 q-100 -80 -279 -118 q-12 32 -36 56 q174 36 268 109 q81 65 116 172 l-379 0 l0 60 l395 0 q9 44 16 106 l71 0 q-6 -53 -17 -106 l420 0 l0 -60 l-394 0 Z" /><glyph glyph-name="" unicode="&#x5c3a;" d="M253 465 l535 0 l0 254 l-535 0 l0 -254 ZM584 400 q44 -157 134 -260 q94 -111 235 -155 q-27 -23 -46 -60 q-150 55 -248 178 q-93 117 -141 297 l-268 0 q-4 -65 -12 -123 q-11 -67 -28 -126 q-19 -66 -46 -121 q-31 -61 -72 -109 q-23 30 -54 46 q47 55 79 127 q27 63 44 140 q13 64 19 141 q2 32 3 67 q1 30 1 64 l0 278 l672 0 l0 -384 l-272 0 Z" /><glyph glyph-name="" unicode="&#x5c42;" d="M205 728 l0 -125 l609 0 l0 125 l-609 0 ZM205 544 l0 -47 q0 -35 -1 -66 q-1 -37 -3 -71 q-4 -81 -15 -150 q-12 -82 -33 -150 q-24 -76 -59 -134 q-28 24 -58 33 q33 56 56 128 q19 63 31 140 q9 65 13 141 q2 31 2 66 q1 29 1 62 l0 291 l742 0 l0 -243 l-676 0 ZM304 396 l0 59 l566 0 l0 -59 l-566 0 ZM531 226 q-76 -118 -162 -210 l402 24 q-38 61 -85 128 l56 25 q48 -69 90 -131 q49 -74 74 -116 l-61 -31 q-6 13 -18 33 l-17 28 q-3 6 -6 10 l-264 -17 q-103 -7 -151 -11 q-51 -4 -74 -8 q-11 -1 -18 -3 l-13 -4 l-10 30 q-7 21 -13 33 q22 3 59 46 q18 18 53 65 q41 55 73 109 l-209 0 l0 59 l702 0 l0 -59 l-408 0 Z" /><glyph glyph-name="" unicode="&#x5c4a;" d="M213 724 l0 -136 l597 0 l0 136 l-597 0 ZM213 527 l0 -32 q0 -73 -4 -137 q-5 -81 -16 -150 q-14 -82 -36 -149 q-25 -76 -62 -134 q-23 20 -58 34 q36 55 59 127 q21 63 33 140 q10 64 14 140 q2 32 2 67 q1 28 1 62 l0 290 l731 0 l0 -258 l-664 0 ZM823 21 l0 135 l-211 0 l0 -135 l211 0 ZM343 21 l205 0 l0 135 l-205 0 l0 -135 ZM343 340 l0 -128 l205 0 l0 128 l-205 0 ZM612 340 l0 -128 l211 0 l0 128 l-211 0 ZM888 400 l0 -475 l-65 0 l0 36 l-480 0 l0 -36 l-63 0 l0 475 l268 0 l0 110 l64 0 l0 -110 l276 0 Z" /><glyph glyph-name="" unicode="&#x5c4f;" d="M207 728 l0 -108 l610 0 l0 108 l-610 0 ZM207 561 l0 -96 q0 -34 -1 -64 q-1 -35 -3 -68 q-4 -77 -15 -143 q-13 -78 -35 -142 q-24 -72 -60 -126 q-21 21 -57 37 q34 52 57 119 q20 59 32 131 q9 61 13 133 q2 30 2 63 q1 27 1 60 l0 322 l746 0 l0 -226 l-680 0 ZM411 427 q-27 50 -62 101 l60 19 q37 -50 63 -97 l-61 -23 ZM682 217 l0 143 l-206 0 l0 -121 q0 -12 -1 -22 l207 0 ZM942 159 l-194 0 l0 -236 l-66 0 l0 236 l-214 0 q-15 -74 -59 -128 q-52 -64 -151 -109 q-18 30 -44 49 q85 37 131 88 q40 43 55 100 l-176 0 l0 58 l185 0 l2 22 l0 121 l-161 0 l0 58 l422 0 q43 69 70 133 l68 -20 q-37 -65 -73 -113 l177 0 l0 -58 l-166 0 l0 -143 l194 0 l0 -58 Z" /><glyph glyph-name="" unicode="&#x5c55;" d="M211 728 l0 -108 l607 0 l0 108 l-607 0 ZM211 561 l0 -65 q0 -35 -1 -66 q-1 -37 -3 -72 q-5 -81 -16 -150 q-13 -82 -35 -150 q-25 -76 -62 -134 q-31 24 -58 34 q36 56 59 128 q21 63 33 140 q10 64 14 141 q2 31 2 66 q1 29 1 63 l0 291 l740 0 l0 -226 l-674 0 ZM463 286 l209 0 l0 111 l-209 0 l0 -111 ZM890 183 q-71 -56 -165 -105 q96 -72 232 -100 q-25 -24 -41 -55 q-273 69 -377 304 l-144 0 l0 -213 l223 51 q-2 -16 -2 -29 q-1 -17 0 -27 l-86 -21 l-156 -41 q-30 -8 -44 -13 q-12 -5 -19 -10 q-5 27 -28 57 q19 10 31 25 q17 20 17 49 l0 172 l-113 0 l0 59 l183 0 l0 111 l-154 0 l0 58 l154 0 l0 93 l62 0 l0 -93 l209 0 l0 93 l62 0 l0 -93 l173 0 l0 -58 l-173 0 l0 -111 l212 0 l0 -59 l-345 0 q29 -59 83 -114 q84 49 156 105 l50 -35 Z" /><glyph glyph-name="" unicode="&#x5c61;" d="M210 735 l0 -99 l604 0 l0 99 l-604 0 ZM210 582 l0 -80 q0 -35 -1 -67 q-1 -37 -3 -71 q-5 -82 -16 -152 q-13 -82 -35 -150 q-25 -77 -62 -135 q-21 20 -57 33 q35 56 59 129 q20 64 32 142 q10 65 14 141 q2 32 2 67 q1 29 1 63 l0 288 l737 0 l0 -208 l-671 0 ZM693 481 q50 48 81 89 l55 -21 q-43 -47 -90 -87 l-46 19 ZM470 159 q-10 -15 -24 -33 l-24 -30 q89 -14 186 -37 q63 42 93 100 l-231 0 ZM541 268 q-7 -12 -17 -29 l-18 -30 l427 0 l0 -50 l-168 0 q-28 -70 -87 -115 q156 -38 252 -74 l-52 -43 q-99 39 -258 78 q-65 -33 -161 -53 q-88 -19 -215 -30 q-8 36 -22 54 q202 11 312 49 q-45 10 -102 21 l-106 20 q17 18 38 44 q17 20 40 49 l-172 0 l0 50 l207 0 q23 33 45 74 l57 -15 ZM665 403 q112 -84 281 -117 q-19 -16 -37 -45 q-85 22 -166 63 q-87 43 -139 94 l0 -129 l-64 0 l0 129 q-116 -109 -289 -160 q-18 26 -36 44 q155 38 264 121 l-235 0 l0 50 l155 0 q-32 45 -76 87 l46 23 l44 -45 q25 -27 37 -42 l-41 -23 l131 0 l0 113 l64 0 l0 -113 l320 0 l0 -50 l-259 0 Z" /><glyph glyph-name="" unicode="&#x5d4c;" d="M655 590 q-3 -22 -9 -48 l-10 -46 l260 0 l11 2 l41 -12 q-8 -33 -15 -58 q-8 -32 -16 -58 q-18 -63 -33 -99 l-51 14 q10 26 22 70 q9 33 21 82 l-255 0 q-31 -113 -80 -189 q-25 21 -54 35 q39 55 67 142 q25 76 40 176 l61 -11 ZM882 627 l-761 0 l0 175 l67 0 l0 -118 l277 0 l0 152 l68 0 l0 -152 l280 0 l0 118 l69 0 l0 -175 ZM381 410 l-187 0 l0 -136 l187 0 l0 136 ZM381 71 l0 147 l-187 0 l0 -147 l187 0 ZM443 410 l0 -472 l-62 0 l0 73 l-187 0 l0 -86 l-63 0 l0 485 l-84 0 l0 61 l84 0 l0 108 l63 0 l0 -108 l187 0 l0 108 l62 0 l0 -108 l81 0 l0 -61 l-81 0 ZM756 349 q0 -23 -1 -42 q-2 -25 -5 -48 q28 -95 80 -169 q55 -78 125 -115 q-27 -22 -45 -50 q-116 69 -187 233 q-25 -64 -70 -118 q-53 -65 -133 -116 q-16 23 -51 42 q76 45 125 101 q43 48 66 105 q19 45 26 97 q2 20 3 43 q1 16 1 38 l0 34 l66 0 l0 -35 Z" /><glyph glyph-name="" unicode="&#x5de1;" d="M875 100 q-23 69 -78 175 q-52 101 -115 201 q107 194 161 338 l64 -19 q-13 -35 -33 -77 q-17 -37 -39 -82 l-83 -160 q126 -198 188 -347 l-65 -29 ZM666 103 q-21 69 -72 174 q-48 101 -106 200 q94 181 147 337 l64 -18 q-24 -66 -67 -159 q-17 -38 -38 -81 q-17 -36 -38 -78 q54 -92 101 -185 q51 -100 73 -162 l-64 -28 ZM460 97 q-20 71 -66 176 q-45 103 -98 202 q89 195 133 339 l65 -17 q-11 -35 -28 -78 q-14 -37 -33 -83 l-70 -161 q50 -92 94 -186 q47 -101 67 -163 l-64 -29 ZM219 607 q-21 35 -68 87 q-43 48 -89 91 l52 33 q47 -42 90 -88 q48 -50 71 -85 l-56 -38 ZM243 126 q7 -4 16 -11 l15 -12 q2 -2 3 -2 q26 -21 45 -34 q46 -31 114 -42 q31 -5 70 -7 q34 -2 82 -2 q203 0 367 19 q-7 -17 -12 -35 q-6 -23 -7 -36 q-152 -11 -349 -11 q-103 0 -163 12 q-70 13 -119 47 q-13 8 -29 21 l-26 21 q-28 22 -40 22 q-22 0 -58 -40 q-29 -32 -72 -95 l-46 59 q42 50 75 81 q38 35 68 47 l0 283 l-127 0 l0 63 l193 0 l0 -348 Z" /><glyph glyph-name="" unicode="&#x2f2f;&#x5de5;" d="M947 69 l0 -67 l-891 0 l0 67 l406 0 l0 584 l-355 0 l0 68 l791 0 l0 -68 l-363 0 l0 -584 l412 0 Z" /><glyph glyph-name="" unicode="&#x5de6;" d="M392 589 q-23 -91 -50 -169 q-31 -87 -67 -161 q-40 -80 -87 -146 q-50 -71 -110 -126 q-20 28 -44 52 q55 49 101 113 q44 60 81 134 q34 67 62 147 q26 73 47 156 l-253 0 l0 65 l269 0 q9 43 18 91 q8 41 16 90 l67 -9 q-15 -93 -34 -172 l518 0 l0 -65 l-534 0 ZM945 19 l0 -64 l-713 0 l0 64 l329 0 l0 309 l-227 0 l0 64 l564 0 l0 -64 l-269 0 l0 -309 l316 0 Z" /><glyph glyph-name="" unicode="&#x5df2;" d="M738 19 q82 0 107 38 q24 35 35 159 q27 -19 67 -27 q-14 -141 -52 -186 q-41 -50 -158 -50 l-381 0 q-119 0 -161 29 q-44 30 -44 117 l0 505 l67 0 l0 -169 l535 0 l0 271 l-657 0 l0 66 l725 0 l0 -452 l-68 0 l0 50 l-535 0 l0 -273 q0 -47 26 -63 q25 -15 106 -15 l388 0 Z" /><glyph glyph-name="" unicode="&#x5e02;" d="M531 623 l0 -140 l325 0 l0 -353 q0 -57 -41 -72 q-23 -8 -68 -10 q-33 -2 -107 -2 q-2 14 -9 34 l-14 32 q109 -3 149 -1 q22 1 22 20 l0 287 l-257 0 l0 -493 l-68 0 l0 493 l-242 0 l0 -376 l-67 0 l0 441 l309 0 l0 140 l-408 0 l0 65 l432 0 q-28 63 -69 134 l63 21 q24 -38 45 -77 q23 -44 34 -71 l-19 -7 l406 0 l0 -65 l-416 0 Z" /><glyph glyph-name="" unicode="&#x5e03;" d="M393 616 q-43 -94 -109 -187 l229 0 l0 137 l67 0 l0 -137 l301 0 l0 -323 q0 -53 -38 -67 q-20 -7 -63 -10 q-19 -1 -48 -1 l-58 0 q-4 26 -23 60 q42 -1 90 -1 l52 0 q21 1 21 20 l0 258 l-234 0 l0 -442 l-67 0 l0 442 l-222 0 l0 -348 l-66 0 l0 336 q-69 -78 -149 -135 q-23 36 -40 55 q88 61 163 153 q68 85 120 190 l-255 0 l0 64 l285 0 q16 36 31 78 q12 35 24 78 l69 -16 q-23 -73 -51 -140 l515 0 l0 -64 l-544 0 Z" /><glyph glyph-name="" unicode="&#x5e0c;" d="M398 447 q-41 -67 -93 -128 l199 0 l0 101 l65 0 l0 -101 l292 0 l0 -254 q0 -50 -36 -63 q-32 -11 -153 -11 q-2 12 -9 30 l-13 28 q100 -2 125 0 q19 0 19 17 l0 193 l-225 0 l0 -335 l-65 0 l0 335 l-207 0 l0 -275 l-65 0 l0 260 q-65 -61 -149 -109 q-18 27 -43 50 q85 46 158 115 q70 66 124 147 l-261 0 l0 60 l296 0 q27 49 47 102 q-60 -19 -129 -37 q-59 -15 -127 -30 q-20 30 -46 56 q91 16 177 38 q92 22 173 49 q-69 25 -146 49 q-69 22 -142 42 l45 40 q74 -19 162 -45 q78 -25 167 -55 q144 55 234 121 l56 -36 q-41 -30 -97 -60 q-47 -26 -111 -55 q136 -49 238 -99 l-48 -49 q-49 25 -121 56 q-68 29 -151 60 q-23 -9 -50 -18 l-50 -17 l40 -11 q-17 -45 -46 -101 l507 0 l0 -60 l-541 0 Z" /><glyph glyph-name="" unicode="&#x5e10;" d="M905 771 q-48 -83 -120 -162 q-68 -75 -144 -129 q-16 22 -49 48 q162 103 250 263 l63 -20 ZM374 202 q0 -43 -22 -56 q-19 -12 -81 -12 q-2 25 -17 58 q45 -2 58 0 q10 0 10 10 l0 384 l-71 0 l0 -662 l-59 0 l0 662 l-74 0 l0 -458 l-54 0 l0 518 l128 0 l0 188 l59 0 l0 -188 l123 0 l0 -444 ZM718 380 q34 -131 94 -228 q64 -104 148 -155 q-26 -21 -45 -51 q-91 62 -158 178 q-63 109 -100 256 l-94 0 l0 -353 l163 59 q0 -30 6 -60 q-151 -60 -195 -79 q-42 -18 -54 -29 q-8 34 -28 57 q18 8 29 21 q15 18 15 44 l0 340 l-92 0 l0 65 l92 0 l0 371 l64 0 l0 -371 l388 0 l0 -65 l-233 0 Z" /><glyph glyph-name="" unicode="&#x5e26;" d="M83 500 l836 0 l0 -200 l-67 0 l0 142 l-321 0 l0 -118 l293 0 l0 -237 q0 -49 -34 -63 q-18 -7 -55 -9 q-16 -1 -39 -1 l-48 0 q-5 30 -21 59 q84 -3 113 -1 q17 1 17 16 l0 177 l-226 0 l0 -341 l-68 0 l0 341 l-205 0 l0 -252 l-66 0 l0 311 l271 0 l0 118 l-316 0 l0 -142 l-64 0 l0 200 ZM947 713 l0 -58 l-162 0 l0 -107 l-66 0 l0 107 l-188 0 l0 -103 l-66 0 l0 103 l-179 0 l0 -105 l-66 0 l0 105 l-165 0 l0 58 l165 0 l0 117 l66 0 l0 -117 l179 0 l0 117 l66 0 l0 -117 l188 0 l0 117 l66 0 l0 -117 l162 0 Z" /><glyph glyph-name="" unicode="&#x5e38;" d="M834 802 q-57 -79 -101 -121 l-53 22 q49 58 86 124 l68 -25 ZM307 389 l392 0 l0 104 l-392 0 l0 -104 ZM855 41 q0 -51 -36 -65 q-21 -7 -62 -9 q-17 -1 -44 -1 l-53 0 q-6 25 -23 60 q97 -3 131 -1 q20 1 20 16 l0 149 l-242 0 l0 -266 l-67 0 l0 266 l-256 0 l0 -221 l-67 0 l0 282 l323 0 l0 86 l-235 0 l0 207 l522 0 l0 -207 l-220 0 l0 -86 l309 0 l0 -210 ZM233 826 q58 -66 86 -119 l-63 -29 q-23 51 -82 123 l59 25 ZM917 678 l0 -210 l-66 0 l0 151 l-696 0 l0 -151 l-64 0 l0 210 l382 0 l0 158 l68 0 l0 -158 l376 0 Z" /><glyph glyph-name="" unicode="&#x5e45;" d="M395 205 q0 -41 -21 -55 q-17 -12 -73 -12 q-4 29 -20 58 q17 -1 33 -1 l20 0 q9 1 9 12 l0 379 l-82 0 l0 -662 l-58 0 l0 662 l-78 0 l0 -457 l-53 0 l0 517 l131 0 l0 188 l58 0 l0 -188 l134 0 l0 -441 ZM497 286 l0 -110 l152 0 l0 110 l-152 0 ZM871 286 l-163 0 l0 -110 l163 0 l0 110 ZM871 14 l0 108 l-163 0 l0 -108 l163 0 ZM649 14 l0 108 l-152 0 l0 -108 l152 0 ZM437 341 l497 0 l0 -413 l-63 0 l0 31 l-374 0 l0 -34 l-60 0 l0 416 ZM832 598 l-292 0 l0 -123 l292 0 l0 123 ZM892 651 l0 -229 l-410 0 l0 229 l410 0 ZM948 782 l0 -56 l-519 0 l0 56 l519 0 Z" /><glyph glyph-name="" unicode="&#x5e73;" d="M946 279 l-414 0 l0 -354 l-68 0 l0 354 l-408 0 l0 66 l408 0 l0 356 l-356 0 l0 66 l782 0 l0 -66 l-358 0 l0 -356 l414 0 l0 -66 ZM239 650 q73 -131 98 -229 l-63 -21 q-26 102 -94 233 l59 17 ZM647 414 q66 112 111 242 l70 -21 q-29 -66 -61 -127 q-36 -70 -64 -112 l-56 18 Z" /><glyph glyph-name="" unicode="&#x5e74;&#xf98e;" d="M516 220 l0 207 l-232 0 l0 -207 l232 0 ZM950 156 l-367 0 l0 -232 l-67 0 l0 232 l-464 0 l0 64 l165 0 l0 270 l299 0 l0 159 l-248 0 q-71 -121 -155 -200 l-27 21 q-20 15 -31 21 q148 127 230 347 l66 -16 q-22 -59 -48 -109 l600 0 l0 -64 l-320 0 l0 -159 l299 0 l0 -63 l-299 0 l0 -207 l367 0 l0 -64 Z" /><glyph glyph-name="" unicode="&#x5e76;" d="M327 633 q-28 78 -105 177 l60 26 q80 -99 109 -175 l-64 -28 ZM646 342 l0 223 l-288 0 l0 -223 l288 0 ZM945 278 l-230 0 l0 -354 l-69 0 l0 354 l-292 0 q-5 -55 -19 -100 q-15 -52 -41 -95 q-61 -100 -189 -165 q-19 30 -47 52 q114 58 170 143 q24 37 39 81 q12 38 18 84 l-229 0 l0 64 l234 0 l0 223 l-196 0 l0 64 l520 0 q55 97 94 209 l75 -23 q-26 -53 -48 -96 q-27 -52 -50 -90 l228 0 l0 -64 l-198 0 l0 -223 l230 0 l0 -64 Z" /><glyph glyph-name="" unicode="&#x5e86;" d="M187 646 l0 -207 q0 -65 -3 -122 q-4 -73 -13 -135 q-11 -74 -30 -135 q-20 -69 -50 -121 q-24 24 -57 37 q28 50 47 114 q17 56 27 124 q7 57 11 125 l2 59 l0 325 l407 0 q-25 48 -67 101 l59 24 q51 -59 84 -125 l343 0 l0 -64 l-760 0 ZM599 384 q54 -132 147 -236 q96 -108 212 -159 q-28 -25 -48 -57 q-105 52 -195 150 q-86 94 -146 217 q-18 -58 -43 -109 q-27 -55 -64 -100 q-82 -103 -211 -162 q-16 29 -44 51 q73 31 130 77 q52 43 90 98 q35 50 59 111 q21 54 35 119 l-273 0 l0 63 l283 0 q6 38 10 85 l7 82 l70 0 q-3 -46 -7 -82 q-5 -45 -11 -85 l329 0 l0 -63 l-330 0 Z" /><glyph glyph-name="" unicode="&#x5e93;" d="M190 671 l0 -225 q0 -67 -3 -126 q-5 -74 -14 -139 q-11 -76 -30 -138 q-21 -71 -51 -124 q-24 24 -56 39 q29 50 48 116 q17 57 26 127 q8 58 12 128 l2 60 l0 345 l395 0 q-24 50 -48 82 l63 19 q37 -46 60 -101 l354 0 l0 -63 l-758 0 ZM950 83 l-289 0 l0 -158 l-66 0 l0 158 l-364 0 l0 61 l364 0 l0 121 l-177 0 q-77 0 -93 -14 q-3 12 -9 31 q-7 22 -13 34 q22 5 54 59 l25 42 q19 35 36 68 l-158 0 l0 61 l187 0 q21 46 39 100 l68 -24 q-16 -37 -35 -76 l388 0 l0 -61 l-417 0 q-47 -91 -94 -160 l199 0 l0 109 l66 0 l0 -109 l224 0 l0 -60 l-224 0 l0 -121 l289 0 l0 -61 Z" /><glyph glyph-name="" unicode="&#x5e94;" d="M192 642 l0 -209 q0 -65 -3 -123 q-4 -73 -14 -136 q-10 -74 -28 -135 q-20 -70 -49 -122 q-22 22 -57 37 q27 50 45 115 q16 56 26 125 q7 57 11 125 l2 59 l0 327 l402 0 l-26 59 q-17 36 -31 61 l64 17 q39 -66 66 -133 l-13 -4 l350 0 l0 -63 l-745 0 ZM568 203 q-9 65 -34 165 q-22 87 -49 176 l60 18 q27 -88 50 -176 q25 -99 36 -165 l-63 -18 ZM374 148 q-13 65 -46 165 q-29 88 -63 177 l58 24 q34 -87 64 -177 q33 -98 49 -164 l-62 -25 ZM951 36 l0 -64 l-742 0 l0 64 l400 0 q71 113 128 260 q55 137 85 271 l69 -25 q-37 -129 -91 -257 q-56 -134 -123 -249 l274 0 Z" /><glyph glyph-name="" unicode="&#x5e95;" d="M190 673 l0 -227 q0 -67 -3 -126 q-5 -74 -14 -138 q-11 -76 -30 -138 q-21 -71 -51 -125 q-19 22 -55 39 q29 50 48 116 q17 57 26 127 q8 59 12 128 l2 61 l0 344 l400 0 q-17 44 -45 83 l61 21 q33 -43 58 -104 l349 0 l0 -61 l-758 0 ZM567 176 q31 -55 58 -109 q31 -61 45 -98 l-53 -25 q-15 39 -44 101 q-27 58 -56 112 l50 19 ZM612 350 q-15 95 -19 180 q-109 -10 -227 -15 l0 -165 l246 0 ZM688 290 q30 -132 78 -212 q48 -80 97 -80 q31 0 37 145 q24 -21 53 -30 q-7 -102 -28 -141 q-20 -37 -66 -37 q-77 0 -141 99 q-60 94 -94 256 l-258 0 l0 -255 l158 51 q-2 -25 3 -55 q-141 -49 -187 -68 q-24 -10 -36 -16 q-11 -5 -18 -11 q-5 29 -23 56 q17 6 27 16 q14 15 14 39 l0 521 q143 6 282 19 q149 14 235 32 l53 -51 q-94 -20 -217 -32 q4 -95 20 -186 l240 0 l0 -60 l-229 0 Z" /><glyph glyph-name="" unicode="&#x5e9c;" d="M185 662 l0 -311 q0 -57 -3 -107 q-3 -61 -12 -114 q-9 -62 -25 -112 q-19 -56 -45 -98 q-23 25 -56 38 q24 39 40 91 q14 45 23 101 q6 46 9 103 q2 41 2 97 l0 375 l404 0 l-24 52 q-14 31 -25 50 l65 18 l32 -61 q18 -36 28 -59 l348 0 l0 -63 l-761 0 ZM464 622 q-29 -83 -75 -168 l0 -530 l-63 0 l0 430 q-45 -60 -84 -97 q-9 27 -31 58 q61 58 113 152 q48 84 75 172 l65 -17 ZM947 416 l-117 0 l0 -406 q0 -57 -39 -73 q-20 -8 -59 -10 q-30 -2 -95 -2 q-5 29 -23 66 l129 -2 q21 1 21 21 l0 406 l-306 0 l0 62 l306 0 l0 153 l66 0 l0 -153 l117 0 l0 -62 ZM615 116 q-16 38 -51 98 q-30 52 -65 104 l54 23 q77 -108 119 -196 l-57 -29 Z" /><glyph glyph-name="" unicode="&#x5ea6;" d="M197 463 q0 -68 -3 -129 q-4 -75 -14 -141 q-11 -77 -29 -141 q-20 -73 -50 -128 q-22 18 -59 30 q29 53 48 122 q17 60 27 133 q8 61 11 133 q2 30 2 63 q1 27 1 58 l0 271 l388 0 q-18 42 -44 90 l66 16 q28 -45 53 -106 l350 0 l0 -63 l-747 0 l0 -208 ZM450 499 l0 -112 l253 0 l0 112 l-253 0 ZM387 333 l0 166 l-165 0 l0 56 l165 0 l0 90 l63 0 l0 -90 l253 0 l0 90 l66 0 l0 -90 l164 0 l0 -56 l-164 0 l0 -166 l-382 0 ZM400 209 q60 -78 176 -133 q122 52 187 133 l-363 0 ZM860 244 q-34 -62 -90 -113 q-52 -48 -123 -85 q139 -49 310 -64 q-22 -23 -38 -58 q-98 12 -182 34 q-89 22 -162 55 q-78 -31 -172 -52 q-87 -20 -185 -31 q-9 26 -28 57 q175 14 315 61 q-105 60 -167 146 l36 15 l-137 0 l0 55 l569 0 l13 3 l41 -23 Z" /><glyph glyph-name="" unicode="&#x5ead;" d="M183 448 q0 -66 -3 -125 q-3 -74 -12 -138 q-9 -75 -25 -137 q-19 -71 -45 -124 q-8 8 -26 21 q-16 11 -28 17 q24 50 40 116 q14 57 23 127 q6 58 9 127 l2 60 l0 351 l411 0 q-14 43 -39 84 l60 17 q14 -21 27 -51 q11 -24 21 -50 l347 0 l0 -61 l-762 0 l0 -234 ZM688 164 l0 173 l-150 0 l0 58 l150 0 l0 133 l-79 -11 q-34 -4 -77 -8 q-5 25 -17 50 l93 12 q51 8 95 16 q103 19 159 40 l34 -51 q-55 -20 -146 -38 l0 -143 l151 0 l0 -58 l-151 0 l0 -173 l183 0 l0 -58 l-432 0 l0 58 l187 0 ZM483 374 q-26 -176 -98 -291 q52 -45 132 -64 q68 -17 171 -17 l271 1 q-16 -25 -24 -60 l-249 0 q-116 0 -192 19 q-87 22 -145 73 q-54 -65 -133 -108 q-18 29 -42 45 q81 41 135 107 q-48 63 -81 170 l50 19 q26 -89 66 -141 q51 85 74 203 l-181 1 q62 92 128 216 l-146 0 l0 56 l242 0 q-63 -115 -127 -219 l103 0 l11 2 l35 -12 Z" /><glyph glyph-name="" unicode="&#x5efa;" d="M655 693 l0 -78 l156 0 l0 78 l-156 0 ZM811 560 l-156 0 l0 -80 l156 0 l0 80 ZM592 693 l-196 0 l0 54 l196 0 l0 83 l63 0 l0 -83 l216 0 l0 -132 l72 0 l0 -55 l-72 0 l0 -134 l-216 0 l0 -81 l237 0 l0 -52 l-237 0 l0 -87 l275 0 l0 -55 l-275 0 l0 -105 l-63 0 l0 105 l-253 0 l0 55 l253 0 l0 87 l-211 0 l0 52 l211 0 l0 81 l-204 0 l0 54 l204 0 l0 80 l-263 0 l0 55 l263 0 l0 78 ZM332 486 q-22 -203 -87 -350 q68 -72 177 -101 q49 -13 111 -19 q54 -5 124 -5 l301 1 q-18 -24 -26 -62 l-276 0 q-74 0 -133 6 q-65 6 -117 20 q-115 31 -189 105 q-52 -92 -126 -150 q-10 12 -23 25 q-16 15 -26 21 q77 55 132 154 q-54 73 -90 192 l50 20 q26 -89 68 -153 q44 110 63 245 l-162 0 q70 120 145 277 l-180 0 l0 60 l276 0 q-30 -63 -70 -141 q-36 -71 -71 -136 l80 0 l12 1 l37 -10 Z" /><glyph glyph-name="" unicode="&#x5f00;" d="M652 414 l0 291 l-287 0 l0 -268 q0 -13 -1 -23 l288 0 ZM945 350 l-225 0 l0 -427 l-68 0 l0 427 l-291 0 q-5 -64 -19 -117 q-15 -61 -41 -113 q-30 -57 -75 -105 q-48 -52 -115 -94 q-23 29 -52 48 q118 74 176 178 q25 46 40 100 q13 47 18 103 l-237 0 l0 64 l241 0 q1 10 1 23 l0 268 l-204 0 l0 64 l819 0 l0 -64 l-193 0 l0 -291 l225 0 l0 -64 Z" /><glyph glyph-name="" unicode="&#x5f02;" d="M210 731 l0 -121 l551 0 l0 121 l-551 0 ZM349 369 q-121 0 -162 22 q-43 22 -43 90 l0 308 l682 0 l0 -237 l-616 0 l0 -70 q0 -33 24 -43 q25 -10 109 -10 l410 0 q62 0 81 18 q18 18 23 82 q29 -18 64 -23 q-10 -83 -41 -109 q-32 -28 -126 -28 l-405 0 ZM947 161 l-227 0 l0 -234 l-65 0 l0 234 l-333 0 q-15 -73 -61 -127 q-55 -67 -159 -113 q-15 25 -44 50 q89 38 138 90 q42 44 57 100 l-197 0 l0 61 l208 0 q1 8 1 18 l0 96 l66 0 l0 -96 q0 -10 -1 -18 l325 0 l0 113 l65 0 l0 -113 l227 0 l0 -61 Z" /><glyph glyph-name="" unicode="&#x5f0f;" d="M852 663 q-47 59 -145 127 l45 37 q96 -65 147 -122 l-47 -42 ZM342 78 q62 13 109 23 l109 24 l6 -59 l-257 -60 q-137 -32 -225 -51 l-21 64 l213 44 l0 300 l-183 0 l0 64 l440 0 l0 -64 l-191 0 l0 -285 ZM646 582 q19 -263 76 -425 q58 -166 135 -166 q37 0 47 190 q22 -22 58 -36 q-9 -129 -32 -176 q-23 -47 -78 -47 q-115 0 -187 190 q-33 87 -55 210 q-22 116 -32 260 l-520 0 l0 65 l516 0 q-3 40 -4 91 q-1 21 -1 47 l-1 46 l70 0 q0 -50 1 -93 q1 -49 3 -91 l301 0 l0 -65 l-297 0 Z" /><glyph glyph-name="" unicode="&#x5f20;" d="M912 771 q-98 -176 -266 -291 l-24 22 q-17 15 -27 21 q162 101 252 267 l65 -19 ZM365 339 q0 -1 -1 -11 l-1 -18 q-9 -176 -20 -252 q-12 -75 -32 -97 q-22 -24 -65 -27 q-47 -4 -125 1 q-4 35 -21 59 q34 -3 72 -3 q14 -1 29 -1 l19 0 q24 -1 35 10 q14 14 23 76 q10 65 17 202 l-200 0 q8 55 16 141 q7 78 12 153 l172 0 l0 161 l-197 0 l0 62 l261 0 l0 -286 l-179 0 l-8 -87 q-4 -50 -8 -83 l201 0 ZM722 382 q34 -135 94 -233 q64 -106 151 -157 q-28 -23 -46 -53 q-94 62 -162 181 q-64 111 -100 262 l-103 0 l0 -353 l157 60 q0 -33 4 -61 q-148 -62 -190 -81 q-41 -18 -52 -29 q-11 35 -29 58 q18 8 29 21 q16 18 16 45 l0 340 l-115 0 l0 64 l115 0 l0 370 l65 0 l0 -370 l398 0 l0 -64 l-232 0 Z" /><glyph glyph-name="" unicode="&#x5f3a;" d="M62 782 l305 0 l0 -283 l-224 0 q-10 -97 -20 -167 l238 0 l-2 -30 q-10 -169 -23 -246 q-12 -74 -33 -96 q-21 -25 -63 -28 q-46 -4 -114 2 q-4 35 -19 61 q31 -3 64 -4 l43 -1 q25 0 34 11 q15 14 26 74 q10 63 19 197 l-241 0 q26 140 37 288 l216 0 l0 161 l-243 0 l0 61 ZM629 238 l0 150 l-143 0 l0 -150 l143 0 ZM693 388 l0 -150 l146 0 l0 150 l-146 0 ZM510 595 l301 0 l0 130 l-301 0 l0 -130 ZM903 -84 q-11 32 -32 70 l-480 -36 l-9 64 l247 15 l0 152 l-202 0 l0 263 l202 0 l0 94 l-180 0 l0 244 l425 0 l0 -244 l-181 0 l0 -94 l208 0 l0 -263 l-208 0 l0 -148 l147 10 q-31 50 -62 93 l54 23 q41 -53 76 -111 q37 -62 52 -105 l-57 -27 Z" /><glyph glyph-name="" unicode="&#x5f53;" d="M876 775 q-36 -69 -72 -131 q-41 -70 -74 -116 l-55 24 q77 114 131 248 l70 -25 ZM257 536 q-38 110 -130 230 l59 25 q91 -113 134 -227 l-63 -28 ZM535 482 l328 0 l0 -559 l-69 0 l0 44 l-674 0 l0 66 l674 0 l0 166 l-623 0 l0 64 l623 0 l0 153 l-655 0 l0 66 l325 0 l0 354 l71 0 l0 -354 Z" /><glyph glyph-name="" unicode="&#x5f55;" d="M867 328 q-92 -81 -199 -149 q118 -112 282 -158 q-26 -22 -43 -57 q-239 75 -373 287 l0 -252 q0 -52 -40 -67 q-35 -11 -156 -9 q-5 21 -24 59 q42 -2 83 -2 q35 -1 48 0 q22 1 22 20 l0 150 q-89 -40 -189 -84 q-88 -38 -169 -72 l-35 59 l82 32 q41 16 97 39 q43 17 105 43 q21 8 54 22 q3 2 7 3 l48 20 l0 187 l-397 0 l0 59 l661 0 l6 99 l-569 0 l0 61 l573 0 l4 99 l-605 0 l0 61 l614 0 l12 4 l51 -4 q-3 -153 -18 -320 l138 0 l0 -59 l-403 0 l0 -32 q35 -77 94 -147 q50 35 98 73 q52 42 85 76 l56 -41 ZM322 190 q-28 28 -81 67 q-50 36 -100 65 l44 40 q51 -28 101 -62 q54 -37 82 -64 l-46 -46 Z" /><glyph glyph-name="" unicode="&#x5f71;" d="M905 789 q-49 -65 -122 -129 q-70 -62 -141 -105 q-27 31 -49 46 q68 38 136 95 q72 60 114 118 l62 -25 ZM938 521 q-53 -70 -136 -138 q-78 -64 -161 -109 q-23 29 -47 46 q80 40 156 100 q82 64 127 127 l61 -26 ZM490 753 l-313 0 l0 -64 l313 0 l0 64 ZM490 644 l-313 0 l0 -65 l313 0 l0 65 ZM556 532 l-442 0 l0 267 l442 0 l0 -267 ZM590 410 l-526 0 l0 55 l235 0 l-25 48 l60 15 q22 -34 35 -63 l221 0 l0 -55 ZM217 128 q-38 -91 -109 -163 l-22 19 q-15 12 -25 18 q65 60 99 142 l57 -16 ZM183 218 l297 0 l0 90 l-297 0 l0 -90 ZM363 170 l0 -172 q0 -46 -30 -57 q-16 -7 -46 -9 q-19 -1 -70 -1 q-4 23 -20 55 q71 -2 87 0 q14 0 14 13 l0 171 l-177 0 l0 186 l424 0 l0 -186 l-182 0 ZM467 146 q64 -78 96 -142 l-51 -28 q-32 70 -91 147 l46 23 ZM959 234 q-57 -93 -152 -174 q-92 -79 -198 -130 q-17 25 -46 50 q102 45 191 118 q92 76 144 159 l61 -23 Z" /><glyph glyph-name="" unicode="&#x5f81;" d="M317 809 q-86 -134 -233 -237 q-15 31 -35 54 q59 40 115 96 q59 59 90 111 l63 -24 ZM332 589 q-30 -55 -82 -126 l0 -538 l-67 0 l0 457 q-55 -61 -111 -108 q-13 31 -37 64 q149 112 238 273 l59 -22 ZM958 16 l0 -64 l-640 0 l0 64 l101 0 l0 482 l64 0 l0 -482 l147 0 l0 680 l-249 0 l0 63 l543 0 l0 -63 l-228 0 l0 -291 l212 0 l0 -62 l-212 0 l0 -327 l262 0 Z" /><glyph glyph-name="" unicode="&#x5f85;" d="M323 809 q-94 -139 -239 -237 q-15 31 -35 54 q61 40 119 96 q61 59 92 111 l63 -24 ZM334 591 q-16 -30 -37 -62 q-18 -28 -43 -61 l0 -543 l-64 0 l0 465 q-33 -35 -59 -61 q-32 -31 -61 -53 l-6 14 l-10 18 q-10 18 -20 32 q69 51 133 122 q68 75 109 151 l58 -22 ZM474 237 q86 -95 121 -172 l-56 -33 q-34 79 -118 175 l53 30 ZM814 447 l0 -116 l137 0 l0 -62 l-137 0 l0 -260 q0 -58 -38 -72 q-21 -7 -61 -9 q-31 -2 -97 -2 q-4 23 -23 64 q42 -1 84 -1 q34 0 50 1 q20 0 20 19 l0 260 l-409 0 l0 62 l409 0 l0 116 l-421 0 l0 62 l282 0 l0 134 l-223 0 l0 61 l223 0 l0 126 l65 0 l0 -126 l230 0 l0 -61 l-230 0 l0 -134 l283 0 l0 -62 l-144 0 Z" /><glyph glyph-name="" unicode="&#x5f97;" d="M816 752 l-341 0 l0 -85 l341 0 l0 85 ZM816 617 l-341 0 l0 -87 l341 0 l0 87 ZM883 479 l-472 0 l0 325 l472 0 l0 -325 ZM319 808 q-92 -136 -240 -236 q-16 33 -36 54 q62 41 120 96 q61 58 93 110 l63 -24 ZM330 591 q-35 -62 -81 -122 l0 -544 l-64 0 l0 468 q-32 -35 -61 -62 q-32 -30 -62 -53 q-13 33 -36 62 q70 52 135 123 q68 74 112 150 l57 -22 ZM462 180 q85 -75 127 -141 l-50 -36 q-39 64 -124 146 l47 31 ZM950 200 l-151 0 l0 -200 q0 -53 -37 -66 q-20 -7 -58 -10 q-17 -1 -42 -1 l-52 0 q-1 13 -8 31 q-5 13 -14 30 q94 -3 124 -1 q20 1 20 18 l0 199 l-408 0 l0 59 l408 0 l0 90 l-385 0 l0 57 l586 0 l0 -57 l-134 0 l0 -90 l151 0 l0 -59 Z" /><glyph glyph-name="" unicode="&#x5fae;" d="M614 519 l-309 0 l0 235 l48 0 l0 -179 l83 0 l0 260 l52 0 l0 -260 l76 0 l0 179 l50 0 l0 -235 ZM264 813 q-78 -128 -195 -227 q-15 26 -37 50 q112 91 171 199 l61 -22 ZM283 618 q-30 -63 -70 -126 l0 -566 l-61 0 l0 478 q-20 -28 -45 -58 q-20 -23 -46 -51 q-20 35 -40 57 q126 123 204 286 l58 -20 ZM659 186 q9 -32 18 -48 q-85 -59 -115 -82 q-27 -20 -38 -34 q-8 31 -25 57 q5 3 9 7 q5 5 9 12 q9 16 9 42 l0 123 l-139 0 l0 -64 q0 -34 -4 -66 q-4 -38 -14 -71 q-23 -82 -73 -135 q-16 26 -43 44 q44 47 62 115 q7 27 10 59 q3 25 3 55 l0 117 l253 0 l0 -181 l78 50 ZM732 570 q-2 -9 -5 -21 l-6 -21 q11 -83 26 -151 q17 -77 39 -139 q28 67 47 153 q17 79 29 179 l-130 0 ZM920 570 q-16 -127 -40 -223 q-26 -105 -65 -184 q60 -131 147 -183 q-27 -23 -44 -52 q-82 56 -137 173 q-67 -108 -173 -179 q-2 5 -6 11 l-10 14 q-11 13 -22 24 q114 70 183 196 q-42 116 -65 258 q-19 -44 -35 -74 q-15 19 -39 41 l0 -8 l-331 0 l0 58 l331 0 l0 -29 q39 75 65 191 q22 100 34 231 l62 -10 q-12 -103 -30 -197 l210 0 l0 -58 l-35 0 Z" /><glyph glyph-name="" unicode="&#x2f3c;&#x5fc3;" d="M390 797 q75 -53 148 -112 q80 -66 120 -111 l-47 -49 q-39 46 -117 113 q-75 64 -148 116 l44 43 ZM825 507 q45 -93 82 -195 q38 -106 53 -181 l-64 -25 q-34 171 -132 377 l61 24 ZM205 469 q-14 -99 -36 -198 q-12 -55 -25 -102 q-14 -51 -29 -89 l-66 29 q31 71 57 181 q23 96 35 192 l64 -13 ZM365 559 l0 -499 q0 -34 13 -44 q13 -11 56 -11 l201 0 q47 0 62 40 q13 37 19 172 q22 -18 63 -31 q-9 -146 -33 -192 q-28 -52 -108 -52 l-207 0 q-78 0 -106 25 q-28 25 -28 95 l0 497 l68 0 Z" /><glyph glyph-name="" unicode="&#x5fc5;" d="M566 592 q-48 41 -117 94 q-76 58 -136 99 l43 47 q62 -40 138 -97 q69 -51 116 -90 l-44 -53 ZM215 512 q-9 -45 -20 -86 q-12 -49 -25 -91 q-33 -102 -72 -162 l-61 26 q39 60 72 157 q28 85 44 173 l62 -17 ZM650 -2 q43 0 57 37 q13 35 18 158 q26 -19 66 -29 q-8 -138 -34 -183 q-27 -49 -104 -49 l-207 0 q-78 0 -106 25 q-28 26 -28 99 l0 64 q-58 -39 -113 -71 q-60 -35 -119 -63 q-15 25 -43 51 q146 67 275 163 l0 390 l69 0 l0 -336 q132 111 239 246 q103 132 174 276 l66 -27 q-88 -167 -205 -310 q-124 -152 -274 -268 l0 -117 q0 -35 13 -45 q13 -11 56 -11 l200 0 ZM800 501 q120 -172 166 -321 l-63 -30 q-44 150 -162 324 l59 27 Z" /><glyph glyph-name="" unicode="&#x5feb;" d="M33 390 q19 45 34 121 q12 66 18 133 l51 -7 q-4 -65 -17 -136 q-14 -79 -33 -130 l-53 19 ZM175 836 l66 0 l0 -910 l-66 0 l0 910 ZM322 471 q-18 75 -73 184 l47 21 q25 -47 46 -94 q22 -53 30 -86 l-50 -25 ZM649 507 q0 -36 -1 -64 q-2 -36 -5 -67 l165 0 l0 237 l-159 0 l0 -106 ZM676 312 q41 -119 114 -202 q77 -90 179 -128 q-29 -26 -47 -61 q-103 45 -180 138 q-72 87 -117 212 q-26 -106 -87 -188 q-72 -96 -193 -163 q-19 29 -46 52 q124 63 192 157 q30 42 50 90 q17 43 27 93 l-239 0 l0 64 l249 0 q3 31 4 67 q1 29 1 64 l0 106 l-199 0 l0 62 l199 0 l0 161 l66 0 l0 -161 l224 0 l0 -299 l90 0 l0 -64 l-287 0 Z" /><glyph glyph-name="" unicode="&#x6001;" d="M59 -4 q32 45 61 116 q24 62 40 128 l59 -20 q-9 -34 -19 -64 q-11 -37 -23 -68 q-28 -77 -58 -123 l-60 31 ZM648 7 q40 0 51 21 q11 20 16 97 q22 -16 60 -26 q-7 -92 -30 -122 q-25 -30 -94 -30 l-239 0 q-83 0 -111 19 q-29 19 -29 76 l0 199 l65 0 l0 -199 q0 -22 14 -28 q15 -7 63 -7 l234 0 ZM438 448 q105 -60 163 -121 l-58 -39 q-57 64 -160 125 l55 35 ZM461 298 q109 -92 166 -169 l-55 -36 q-23 34 -71 85 q-45 49 -91 90 l51 30 ZM808 256 q92 -145 124 -263 l-64 -23 q-32 123 -119 267 l59 19 ZM570 631 q109 -233 381 -296 q-27 -27 -45 -61 q-291 81 -403 357 l-3 0 q-20 -63 -49 -114 q-33 -56 -79 -100 q-103 -97 -285 -146 q-17 35 -37 56 q165 42 261 124 q42 38 73 85 q27 42 46 95 l-370 0 l0 62 l388 0 q14 65 22 145 l69 0 q-5 -41 -10 -74 q-6 -38 -13 -71 l427 0 l0 -62 l-373 0 Z" /><glyph glyph-name="" unicode="&#x6027;" d="M33 392 q19 45 34 122 q12 65 18 133 l51 -8 q-5 -66 -17 -135 q-15 -79 -33 -130 l-53 18 ZM178 836 l66 0 l0 -910 l-66 0 l0 910 ZM305 676 q51 -95 72 -168 l-50 -25 q-21 79 -69 172 l47 21 ZM943 24 l0 -64 l-609 0 l0 64 l289 0 l0 258 l-215 0 l0 63 l215 0 l0 214 l-153 0 q-28 -85 -71 -158 q-33 19 -60 30 q43 63 76 161 q30 89 48 197 l64 -10 q-16 -88 -37 -157 l133 0 l0 210 l66 0 l0 -210 l231 0 l0 -63 l-231 0 l0 -214 l209 0 l0 -63 l-209 0 l0 -258 l254 0 Z" /><glyph glyph-name="" unicode="&#x606f;" d="M735 688 l-473 0 l0 -86 l473 0 l0 86 ZM735 550 l-473 0 l0 -86 l473 0 l0 86 ZM735 412 l-473 0 l0 -87 l473 0 l0 87 ZM801 271 l-603 0 l0 471 l233 0 q12 27 22 53 q12 30 18 50 l75 -14 l-12 -23 q-7 -15 -12 -23 q-13 -26 -23 -43 l302 0 l0 -471 ZM471 270 q90 -76 139 -153 l-54 -33 q-45 77 -136 157 l51 29 ZM51 0 q27 37 58 98 q24 48 45 103 l57 -24 l-46 -105 q-30 -65 -54 -101 l-60 29 ZM637 4 q41 0 53 20 q11 20 15 98 q24 -18 62 -26 q-7 -93 -31 -123 q-24 -30 -94 -30 l-236 0 q-83 0 -111 18 q-29 19 -29 75 l0 166 l66 0 l0 -166 q0 -20 14 -26 q14 -6 62 -6 l229 0 ZM824 217 q37 -47 68 -100 q34 -57 47 -96 l-61 -28 q-31 90 -113 199 l59 25 Z" /><glyph glyph-name="" unicode="&#x60e7;" d="M42 389 q22 45 36 120 q13 67 15 135 l53 -8 q-1 -69 -13 -140 q-14 -79 -37 -128 l-54 21 ZM181 835 l66 0 l0 -908 l-66 0 l0 908 ZM337 471 q-21 79 -73 184 l48 22 q24 -47 44 -95 q23 -53 32 -86 l-51 -25 ZM590 104 q-36 -48 -90 -99 q-50 -47 -102 -83 l-26 24 q-19 16 -29 23 q115 69 182 157 l65 -22 ZM778 130 q110 -92 171 -171 l-61 -33 q-59 82 -167 175 l57 29 ZM498 211 l314 0 l0 101 l-314 0 l0 -101 ZM498 748 l0 -90 l314 0 l0 90 l-314 0 ZM498 460 l0 -96 l314 0 l0 96 l-314 0 ZM812 605 l-314 0 l0 -92 l314 0 l0 92 ZM959 211 l0 -60 l-627 0 l0 60 l101 0 l0 595 l446 0 l0 -595 l80 0 Z" /><glyph glyph-name="" unicode="&#x60f3;" d="M834 727 l-259 0 l0 -99 l259 0 l0 99 ZM834 575 l-259 0 l0 -100 l259 0 l0 100 ZM834 422 l-259 0 l0 -101 l259 0 l0 101 ZM898 266 l-385 0 l0 516 l385 0 l0 -516 ZM463 271 q37 -35 75 -74 q42 -43 63 -69 l-48 -39 q-20 27 -62 72 q-36 39 -74 77 l46 33 ZM52 6 q29 37 56 97 q23 52 39 106 l58 -22 l-18 -53 q-11 -31 -22 -57 q-28 -64 -55 -101 l-58 30 ZM244 256 l0 278 q-73 -143 -164 -217 q-17 26 -43 46 q119 85 194 264 l-172 0 l0 59 l185 0 l0 147 l64 0 l0 -147 l161 0 l0 -59 l-161 0 l0 -60 q27 -17 89 -62 q53 -40 78 -60 l-37 -53 q-43 43 -130 113 l0 -249 l-64 0 ZM626 7 q37 0 47 20 q11 20 14 96 q24 -19 61 -25 q-7 -93 -29 -122 q-23 -30 -88 -30 l-212 0 q-78 0 -104 18 q-27 18 -27 72 l0 164 l65 0 l0 -163 q0 -30 69 -30 l204 0 ZM827 229 q71 -106 119 -199 l-62 -31 q-16 36 -51 98 q-29 51 -63 107 l57 25 Z" /><glyph glyph-name="" unicode="&#x611f;" d="M194 583 q0 -48 -4 -92 q-4 -54 -14 -101 q-11 -55 -29 -102 q-20 -52 -49 -92 q-21 27 -49 42 q26 37 44 84 q16 41 25 90 q8 42 11 90 q3 37 3 81 l0 150 l448 0 q-5 44 -7 103 l64 0 q2 -54 6 -103 l171 0 q-45 38 -121 72 l40 32 q86 -36 128 -74 l-32 -30 l115 0 l0 -56 l-295 0 q20 -148 64 -249 q70 89 110 196 l59 -14 q-50 -134 -140 -241 q58 -97 118 -97 q32 0 38 127 q21 -18 53 -28 q-7 -92 -28 -126 q-20 -34 -66 -34 q-90 0 -159 110 q-54 -54 -124 -100 q-18 25 -47 45 q75 44 141 110 q-57 117 -82 301 l-392 0 l0 -94 ZM468 230 q39 -37 75 -76 q40 -45 60 -74 l-55 -31 q-46 72 -133 155 l53 26 ZM51 -17 q28 32 59 86 q23 40 46 91 l57 -23 l-47 -91 q-31 -58 -54 -89 l-61 26 ZM549 558 l-312 0 l0 49 l312 0 l0 -49 ZM476 446 l-170 0 l0 -111 l170 0 l0 111 ZM530 286 l-279 0 l0 209 l279 0 l0 -209 ZM637 -12 q41 0 53 21 q12 20 16 99 q21 -15 62 -24 q-8 -93 -31 -122 q-25 -29 -96 -29 l-235 0 q-83 0 -111 17 q-29 18 -29 69 l0 169 l66 0 l0 -169 q0 -20 14 -25 q14 -6 62 -6 l229 0 ZM822 182 q77 -100 112 -184 l-63 -25 q-14 37 -45 92 q-30 51 -62 97 l58 20 Z" /><glyph glyph-name="" unicode="&#x613f;" d="M187 514 q0 -35 -1 -67 q0 -37 -2 -72 q-4 -84 -13 -156 q-11 -86 -28 -157 q-21 -81 -50 -142 q-21 23 -52 37 q27 59 46 134 q16 66 25 146 q8 67 11 145 l2 68 l0 343 l788 0 l0 -55 l-726 0 l0 -224 ZM787 621 l-448 0 l0 -65 l448 0 l0 65 ZM787 513 l-448 0 l0 -65 l448 0 l0 65 ZM851 404 l-263 0 l0 -121 q0 -42 -30 -53 q-24 -9 -122 -9 q-2 10 -9 25 l-13 25 q78 -2 97 0 q16 0 16 13 l0 120 l-249 0 l0 261 l220 0 l11 36 l8 33 l73 -13 q-5 -10 -13 -29 q-8 -19 -12 -27 l286 0 l0 -261 ZM539 202 q71 -64 114 -117 l-47 -32 q-17 23 -50 59 l-62 63 l45 27 ZM428 365 q-81 -78 -174 -138 q-9 10 -23 21 q-16 13 -26 19 q97 53 166 118 l57 -20 ZM857 226 q-69 53 -186 125 l41 35 q51 -29 101 -60 q57 -36 86 -59 l-42 -41 ZM177 -10 q23 33 45 87 q19 47 33 96 l50 -19 l-15 -47 q-9 -28 -17 -50 q-22 -58 -44 -90 l-52 23 ZM671 -5 q33 0 43 17 q9 17 12 83 q26 -17 55 -22 q-6 -81 -26 -107 q-20 -26 -78 -26 l-197 0 q-72 0 -96 16 q-24 17 -24 66 l0 149 l59 0 l0 -148 q0 -28 64 -28 l188 0 ZM814 189 q79 -99 123 -171 l-54 -26 q-22 37 -54 84 q-36 53 -66 91 l51 22 Z" /><glyph glyph-name="" unicode="&#x6167;" d="M676 540 l-174 0 l0 46 l174 0 l0 53 l-140 0 l0 45 l140 0 l0 51 l-164 0 l0 46 l164 0 l0 54 l62 0 l0 -54 l169 0 l0 -46 l-169 0 l0 -51 l152 0 l0 -45 l-152 0 l0 -53 l186 0 l0 -46 l-186 0 l0 -54 l-62 0 l0 54 ZM835 202 l-692 0 l0 47 l627 0 l0 66 l-591 0 l0 45 l591 0 l0 63 l-621 0 l0 48 l686 0 l0 -269 ZM469 194 q91 -52 137 -106 l-44 -38 q-41 53 -134 110 l41 34 ZM244 542 l-173 0 l0 46 l173 0 l0 51 l-140 0 l0 45 l140 0 l0 51 l-163 0 l0 46 l163 0 l0 54 l62 0 l0 -54 l142 0 l0 -46 l-142 0 l0 -51 l128 0 l0 -45 l-128 0 l0 -51 l156 0 l0 -46 l-156 0 l0 -56 l-62 0 l0 56 ZM75 -17 q25 30 50 79 q21 42 36 86 l56 -24 l-17 -43 q-10 -27 -19 -46 q-25 -54 -49 -84 l-57 32 ZM636 -6 q36 0 47 17 q10 17 13 81 q24 -17 60 -23 q-8 -80 -29 -106 q-23 -26 -86 -26 l-222 0 q-81 0 -108 17 q-28 18 -28 69 l0 133 l66 0 l0 -133 q0 -18 13 -23 q13 -6 59 -6 l215 0 ZM832 157 q77 -96 110 -182 l-63 -21 q-29 80 -105 185 l58 18 Z" /><glyph glyph-name="" unicode="&#x6210;" d="M852 668 q-62 57 -180 119 l39 41 q113 -55 182 -115 l-41 -45 ZM884 498 q-65 -197 -175 -338 q60 -161 140 -161 q40 0 48 185 q26 -26 57 -35 q-9 -125 -32 -171 q-23 -46 -78 -46 q-109 0 -185 169 q-94 -101 -214 -171 q-23 33 -48 54 q136 72 237 188 q-29 84 -48 194 q-18 105 -27 231 l-357 0 l0 -135 l257 0 l0 -30 q-4 -175 -10 -242 q-7 -74 -22 -92 q-17 -24 -57 -28 q-46 -4 -121 1 q-2 35 -19 62 q31 -3 66 -3 q13 -1 26 -1 l18 0 q23 0 31 10 q10 12 15 69 q5 55 8 193 l-192 0 l0 -18 q0 -59 -4 -112 q-4 -66 -15 -123 q-12 -67 -32 -121 q-23 -62 -55 -109 q-26 30 -55 45 q30 43 50 99 q18 50 28 109 q9 51 12 110 q3 46 3 103 l0 278 l420 0 q-5 93 -5 172 l69 0 q0 -99 4 -172 l324 0 l0 -65 l-319 0 q15 -209 57 -360 q84 121 135 278 l65 -17 Z" /><glyph glyph-name="" unicode="&#x6211;" d="M862 603 q-54 79 -160 171 l51 34 q104 -87 163 -166 l-54 -39 ZM892 403 q-67 -127 -175 -238 q61 -177 140 -177 q39 0 47 181 q25 -23 56 -35 q-9 -123 -32 -168 q-23 -45 -77 -45 q-114 0 -188 192 q-101 -89 -215 -151 q-18 27 -47 53 q129 64 239 166 q-36 127 -56 295 l-241 0 l0 -169 l182 41 l5 -60 l-187 -44 l0 -231 q0 -61 -41 -77 q-41 -15 -165 -13 q-4 28 -25 67 q44 -1 89 -1 q36 0 52 1 q24 0 24 23 l0 215 l-212 -49 l-19 67 q96 17 231 48 l0 182 l-218 0 l0 63 l218 0 l0 169 q-92 -19 -189 -33 q-4 21 -21 55 q112 18 215 41 q114 26 180 51 l48 -55 q-77 -26 -167 -46 l0 -182 l234 0 q-13 143 -14 288 l69 0 q0 -158 13 -288 l297 0 l0 -63 l-290 0 q17 -139 43 -240 q87 94 138 192 l59 -25 Z" /><glyph glyph-name="" unicode="&#x6216;" d="M863 680 q-61 58 -173 110 l38 41 q115 -50 175 -105 l-40 -46 ZM511 90 q-65 -14 -116 -26 l-315 -68 l-14 67 l440 89 l5 -62 ZM407 457 l-214 0 l0 -184 l214 0 l0 184 ZM472 515 l0 -300 l-340 0 l0 300 l340 0 ZM890 517 q-66 -202 -178 -350 q59 -174 139 -174 q40 0 48 186 q28 -28 58 -36 q-9 -127 -33 -173 q-23 -46 -79 -46 q-111 0 -185 181 q-99 -109 -221 -179 q-6 9 -23 26 q-16 15 -28 25 q139 73 247 200 q-26 86 -44 198 q-18 107 -27 233 l-492 0 l0 66 l489 0 q-2 35 -3 79 q-1 17 -1 40 l-1 40 l71 0 q0 -82 3 -159 l301 0 l0 -66 l-298 0 q16 -218 55 -363 q86 129 137 288 l65 -16 Z" /><glyph glyph-name="" unicode="&#x6218;" d="M867 619 q-32 67 -104 150 l46 26 q69 -74 107 -145 l-49 -31 ZM430 324 l-283 0 l0 -264 l283 0 l0 264 ZM304 385 l188 0 l0 -437 l-62 0 l0 51 l-283 0 l0 -55 l-61 0 l0 441 l154 0 l0 446 l64 0 l0 -193 l210 0 l0 -60 l-210 0 l0 -193 ZM934 440 q-56 -161 -157 -294 q41 -143 96 -147 q32 0 44 155 q9 -9 25 -20 l24 -15 q-13 -107 -38 -154 q-22 -41 -54 -40 q-90 3 -145 164 q-87 -93 -177 -142 q-18 24 -48 47 q110 55 204 165 q-16 63 -29 145 q-12 77 -21 172 l-142 -20 l-8 57 l145 22 q-6 65 -10 143 q-4 66 -7 152 l62 0 q1 -70 6 -147 q3 -65 9 -139 l229 33 l10 -57 l-233 -34 q15 -149 38 -265 q83 114 126 247 l51 -28 Z" /><glyph glyph-name="" unicode="&#x2f3e;&#x6237;" d="M772 411 l0 207 l-528 0 l0 -152 q0 -36 -1 -55 l529 0 ZM839 681 l0 -400 l-67 0 l0 68 l-532 0 q-4 -59 -13 -111 q-10 -60 -26 -112 q-18 -59 -43 -109 q-27 -54 -63 -97 q-23 23 -57 39 q44 53 73 121 q26 60 42 132 q13 61 18 132 q2 30 3 63 q1 28 1 59 l0 215 l326 0 q-18 58 -56 142 l63 17 q39 -75 61 -146 l-43 -13 l313 0 Z" /><glyph glyph-name="" unicode="&#x623f;" d="M209 677 l0 -112 l602 0 l0 112 l-602 0 ZM209 495 q0 -71 -4 -134 q-5 -79 -16 -148 q-13 -82 -34 -150 q-24 -76 -59 -135 q-25 21 -59 33 q34 56 56 128 q20 64 32 140 q10 65 14 140 q2 31 2 65 q1 29 1 61 l0 240 l338 0 l-17 42 q-10 25 -18 40 l64 19 q25 -48 46 -101 l322 0 l0 -228 l-668 0 l0 -12 ZM503 314 q-6 -52 -15 -94 l362 0 l-1 -10 q0 -12 -1 -17 q-20 -203 -54 -234 q-23 -22 -67 -23 q-41 -3 -138 2 q-2 31 -19 56 q37 -3 80 -5 l53 -1 q28 0 37 8 q25 22 40 170 l-306 0 q-27 -85 -81 -141 q-59 -62 -159 -98 q-10 25 -38 49 q126 43 182 132 q25 40 39 95 q13 46 20 111 l-196 0 l0 56 l327 0 q-9 19 -29 53 q-13 23 -35 58 l56 21 q42 -59 68 -109 l-54 -23 l338 0 l0 -56 l-409 0 Z" /><glyph glyph-name="" unicode="&#x6240;" d="M168 525 l0 -166 l206 0 l0 166 l-206 0 ZM166 299 q-2 -51 -7 -97 q-5 -52 -13 -98 q-20 -108 -59 -180 q-21 25 -53 42 q23 43 38 100 q13 49 21 110 q6 50 8 111 l2 53 l0 396 q100 12 186 30 q101 22 155 48 l43 -55 q-57 -25 -148 -45 q-77 -17 -171 -29 l0 -99 l271 0 l0 -287 l-273 0 ZM953 434 l-122 0 l0 -506 l-65 0 l0 506 l-164 0 l0 -36 q0 -64 -5 -118 q-6 -68 -20 -127 q-16 -67 -43 -122 q-30 -62 -74 -108 q-23 28 -52 45 q41 43 68 99 q24 49 38 110 q12 51 16 113 q4 47 4 108 l0 336 q104 16 194 37 q103 25 160 52 l45 -56 q-58 -26 -153 -48 q-42 -10 -89 -19 q-43 -8 -89 -15 l0 -187 l351 0 l0 -64 Z" /><glyph glyph-name="" unicode="&#x2f3f;&#x624b;" d="M949 254 l-414 0 l0 -233 q0 -65 -51 -81 q-41 -13 -205 -11 q-8 31 -29 65 q30 -1 62 -1 l124 0 q31 1 31 29 l0 232 l-414 0 l0 65 l414 0 l0 170 l-348 0 l0 64 l348 0 l0 160 q-81 -8 -168 -14 q-81 -6 -162 -10 q-3 23 -17 59 q96 5 185 12 q101 8 187 18 q97 11 171 24 q83 15 136 32 l49 -54 q-61 -18 -143 -34 q-78 -14 -170 -26 l0 -167 l358 0 l0 -64 l-358 0 l0 -170 l414 0 l0 -65 Z" /><glyph glyph-name="" unicode="&#x624d;" d="M934 564 l-274 0 l0 -531 q0 -65 -47 -82 q-41 -14 -188 -12 q-5 31 -24 69 l53 -2 l107 0 q28 1 28 27 l0 508 q-89 -145 -224 -279 q-137 -137 -275 -215 q-23 37 -50 59 q134 68 269 196 q130 125 215 262 l-453 0 l0 68 l518 0 l0 204 l71 0 l0 -204 l274 0 l0 -68 Z" /><glyph glyph-name="" unicode="&#x6253;" d="M423 349 l-152 -47 l0 -285 q0 -55 -34 -69 q-31 -13 -135 -13 q-3 27 -21 63 q31 -1 66 -1 l38 0 q20 0 20 20 l0 264 l-141 -42 l-21 67 q31 7 75 19 q34 9 87 25 l0 219 l-153 0 l0 63 l153 0 l0 203 l66 0 l0 -203 l142 0 l0 -63 l-142 0 l0 -201 l143 41 l9 -60 ZM957 684 l-180 0 l0 -659 q0 -65 -47 -82 q-24 -9 -73 -11 l-53 -2 l-66 0 q-5 36 -27 72 q126 -5 169 -1 q27 0 27 25 l0 658 l-290 0 l0 66 l540 0 l0 -66 Z" /><glyph glyph-name="" unicode="&#x6258;" d="M385 340 q-62 -20 -134 -41 l0 -286 q0 -54 -34 -68 q-27 -13 -134 -13 q-3 23 -20 62 q30 -1 66 -1 l38 0 q19 0 19 19 l0 267 l-128 -38 l-20 65 l68 17 l80 22 l0 225 l-137 0 l0 62 l137 0 l0 203 l65 0 l0 -203 l129 0 l0 -62 l-129 0 l0 -207 l126 38 l8 -61 ZM851 8 q25 0 33 32 q7 28 10 129 q31 -23 62 -30 q-6 -113 -25 -152 q-21 -42 -76 -42 l-139 0 q-60 0 -81 23 q-21 24 -21 90 l0 299 l-204 -32 l-11 63 l215 32 l0 271 q-94 -21 -188 -35 q-6 28 -22 53 q60 10 117 22 q62 13 116 26 q123 32 188 63 l57 -50 q-79 -34 -202 -64 l0 -276 l259 38 l11 -61 l-270 -41 l0 -309 q0 -49 43 -49 l128 0 Z" /><glyph glyph-name="" unicode="&#x6269;" d="M356 334 q-65 -23 -113 -38 l0 -287 q0 -52 -32 -69 q-32 -14 -125 -13 q-3 29 -20 64 q76 -2 95 0 q18 0 18 18 l0 265 l-117 -38 l-17 66 q47 13 134 40 l0 227 l-121 0 l0 63 l121 0 l0 203 l64 0 l0 -203 l111 0 l0 -63 l-111 0 l0 -207 l105 34 l8 -62 ZM949 620 l-459 0 l0 -185 q0 -67 -5 -125 q-5 -73 -18 -136 q-16 -73 -41 -134 q-29 -68 -70 -120 q-21 22 -54 38 q39 49 65 113 q24 56 37 124 q12 57 16 125 q2 28 3 59 q1 26 1 56 l0 249 l249 0 q-19 52 -61 124 l57 20 q43 -66 69 -130 l-35 -14 l246 0 l0 -64 Z" /><glyph glyph-name="" unicode="&#x627f;" d="M342 562 q-29 -184 -95 -329 q-65 -139 -153 -218 q-23 29 -51 48 q167 142 224 451 l-194 0 l0 61 l215 0 l13 3 l41 -16 ZM541 197 l179 0 l0 -58 l-179 0 l0 -116 q0 -59 -43 -74 q-22 -8 -66 -10 q-33 -2 -107 -2 q-5 26 -24 65 q104 -5 149 -2 q24 1 24 23 l0 116 l-183 0 l0 58 l183 0 l0 100 l-138 0 l0 58 l138 0 l0 95 l-121 0 l0 58 l121 0 l0 93 q114 49 212 128 l-481 0 l0 61 l549 0 l14 4 l46 -34 q-107 -110 -273 -188 l0 -64 l118 0 l0 -58 l-118 0 l0 -95 l134 0 l0 -58 l-134 0 l0 -100 ZM940 540 q-72 -87 -159 -166 q32 -99 75 -171 q47 -78 105 -122 q-26 -21 -49 -55 q-94 79 -157 235 q-28 71 -50 159 q-21 81 -36 177 l59 10 q13 -86 35 -173 q81 82 125 149 l52 -43 Z" /><glyph glyph-name="" unicode="&#x6280;" d="M250 298 l0 -291 q0 -53 -35 -69 q-30 -12 -133 -12 q-4 23 -21 61 q83 -2 104 0 q19 0 19 20 l0 271 l-123 -37 l-20 65 q62 16 143 38 l0 226 l-130 0 l0 62 l130 0 l0 203 l66 0 l0 -203 l113 0 l0 -62 l-113 0 l0 -207 l114 33 l7 -61 l-121 -37 ZM495 398 q52 -140 152 -240 q115 102 170 240 l-322 0 ZM900 443 q-31 -100 -84 -184 q-51 -80 -121 -145 q111 -93 263 -133 q-24 -24 -43 -58 q-155 47 -270 147 q-125 -95 -288 -146 q-15 35 -38 60 q156 43 277 132 q-110 120 -168 282 l-30 0 l0 61 l217 0 l0 155 l-239 0 l0 62 l239 0 l0 160 l65 0 l0 -160 l243 0 l0 -62 l-243 0 l0 -155 l166 0 l12 3 l42 -19 Z" /><glyph glyph-name="" unicode="&#x628a;" d="M367 334 q-7 -2 -16 -5 l-108 -33 l0 -293 q0 -51 -32 -66 q-27 -14 -115 -12 q-6 33 -21 61 q69 -2 86 0 q17 0 17 16 l0 274 l-118 -36 l-19 65 q25 6 63 17 l74 21 l0 226 l-123 0 l0 63 l123 0 l0 203 l65 0 l0 -203 l106 0 l0 -63 l-106 0 l0 -207 l115 35 l9 -63 ZM475 717 l0 -325 l150 0 l0 325 l-150 0 ZM840 717 l-153 0 l0 -325 l153 0 l0 325 ZM822 14 q44 0 59 30 q14 28 21 120 q28 -20 64 -27 q-9 -108 -36 -145 q-29 -41 -108 -41 l-266 0 q-87 0 -117 26 q-32 28 -32 107 l0 699 l501 0 l0 -521 l-68 0 l0 67 l-365 0 l0 -246 q0 -42 15 -55 q16 -14 68 -14 l264 0 Z" /><glyph glyph-name="" unicode="&#x6293;" d="M364 340 q-13 -4 -31 -11 l-94 -31 l0 -287 q0 -52 -32 -67 q-28 -13 -124 -12 q-4 31 -19 61 q76 -2 95 0 q18 0 18 18 l0 266 l-118 -39 l-18 64 q23 6 62 18 l55 17 q11 3 19 6 l0 227 l-126 0 l0 62 l126 0 l0 205 l62 0 l0 -205 l125 0 l0 -62 l-125 0 l0 -207 l116 39 l9 -62 ZM917 763 q-38 -11 -89 -24 l4 -120 q2 -62 5 -115 q7 -122 20 -212 q15 -103 38 -175 q25 -80 61 -127 q-33 -31 -48 -58 q-39 55 -67 140 q-25 77 -40 184 q-15 94 -23 220 l-6 122 l-4 128 q-64 -13 -122 -20 l0 -776 l-62 0 l0 767 q-61 -9 -129 -15 l0 -163 q0 -73 -4 -137 q-4 -82 -15 -154 q-12 -84 -33 -154 q-23 -80 -57 -141 q-11 9 -26 17 q-18 10 -28 13 q33 59 55 135 q20 66 31 146 q10 67 14 145 q2 32 2 67 q1 30 1 63 l0 212 q66 7 129 15 q69 9 129 18 q137 23 212 47 l52 -48 Z" /><glyph glyph-name="" unicode="&#x6295;" d="M538 687 q0 -36 -6 -69 q-7 -37 -23 -70 q-36 -77 -119 -126 q-3 5 -9 12 l-11 13 q-13 14 -23 23 q74 43 105 106 q13 26 18 57 q5 25 5 56 l0 110 l309 0 l0 -234 q0 -37 19 -37 l81 0 q23 0 49 4 l2 -29 q2 -18 4 -28 q-15 -5 -53 -5 l-87 0 q-79 0 -79 97 l0 169 l-182 0 l0 -49 ZM254 301 l0 -288 q0 -54 -34 -68 q-28 -13 -134 -13 q-5 28 -20 62 q30 -1 65 -1 l38 0 q20 0 20 19 l0 268 l-131 -39 l-20 65 q27 6 70 18 l81 23 l0 223 l-139 0 l0 62 l139 0 l0 203 l65 0 l0 -203 l127 0 l0 -62 l-127 0 l0 -205 l97 29 l8 -61 l-105 -32 ZM471 332 q54 -115 157 -200 q108 85 163 200 l-320 0 ZM881 378 q-30 -87 -82 -160 q-49 -70 -116 -125 q115 -77 271 -109 q-23 -22 -44 -61 q-165 40 -283 128 q-64 -44 -142 -77 q-72 -31 -155 -52 q-15 39 -34 61 q155 33 278 111 q-109 99 -168 236 l5 2 l-35 0 l0 63 l450 0 l13 3 l42 -20 Z" /><glyph glyph-name="" unicode="&#x62a5;" d="M385 337 q-27 -8 -61 -19 l-61 -19 l0 -289 q0 -57 -39 -73 q-30 -13 -152 -13 q-5 30 -23 64 q92 -3 123 -1 q24 1 24 22 l0 271 q-35 -11 -74 -22 l-67 -20 l-18 67 q62 15 159 43 l0 219 l-145 0 l0 65 l145 0 l0 203 l67 0 l0 -203 l115 0 l0 -65 l-115 0 l0 -200 l57 17 q32 9 57 17 l8 -64 ZM589 401 q51 -131 138 -236 q77 107 116 236 l-254 0 ZM922 450 q-42 -192 -152 -334 q87 -89 189 -133 q-29 -24 -47 -56 q-99 48 -184 138 q-82 -88 -181 -142 q-7 11 -20 25 l-24 23 q102 54 182 142 q-100 124 -159 288 l-34 0 l0 -475 l-66 0 l0 876 l463 0 l-1 -29 q-8 -190 -36 -218 q-21 -22 -70 -25 q-29 -1 -67 0 q-49 0 -95 3 q-4 34 -19 56 q43 -4 95 -5 q18 -1 36 -1 l23 0 q32 0 41 8 q17 19 24 149 l-328 0 l0 -278 l374 0 l13 3 l43 -15 Z" /><glyph glyph-name="" unicode="&#x62c5;" d="M808 700 l-320 0 l0 -204 l320 0 l0 204 ZM808 433 l-320 0 l0 -209 l320 0 l0 209 ZM874 162 l-449 0 l0 601 l449 0 l0 -601 ZM384 340 q-58 -18 -125 -38 l0 -289 q0 -54 -34 -68 q-27 -13 -134 -13 q-3 23 -20 62 q30 -1 66 -1 l38 0 q19 0 19 19 l0 270 l-136 -41 l-20 64 q60 15 156 43 l0 222 l-144 0 l0 62 l144 0 l0 203 l65 0 l0 -203 l124 0 l0 -62 l-124 0 l0 -204 l116 35 l9 -61 ZM948 28 l0 -63 l-599 0 l0 63 l599 0 Z" /><glyph glyph-name="" unicode="&#x62cd;" d="M378 336 l-2 -1 l-124 -38 l0 -291 q0 -54 -35 -69 q-28 -14 -134 -12 q-5 31 -21 62 q83 -2 103 0 q20 1 20 20 l0 270 l-130 -39 l-18 68 l68 17 l80 22 l0 222 l-134 0 l0 65 l134 0 l0 203 l67 0 l0 -203 l117 0 l0 -65 l-117 0 l0 -202 l118 34 l8 -63 ZM837 45 l0 245 l-347 0 l0 -245 l347 0 ZM490 593 l0 -239 l347 0 l0 239 l-347 0 ZM905 656 l0 -723 l-68 0 l0 49 l-347 0 l0 -56 l-65 0 l0 730 l168 0 q29 91 44 178 l76 -9 q-11 -38 -27 -87 q-11 -35 -27 -82 l246 0 Z" /><glyph glyph-name="" unicode="&#x62e5;" d="M237 300 l0 -291 q0 -53 -32 -68 q-32 -14 -124 -13 q-5 30 -20 63 q76 -2 95 0 q18 0 18 18 l0 269 l-123 -40 l-19 64 l48 14 l94 30 l0 224 l-127 0 l0 62 l127 0 l0 203 l63 0 l0 -203 l115 0 l0 -62 l-115 0 l0 -204 l106 34 l9 -62 l-115 -38 ZM861 306 l0 169 l-171 0 l0 -169 l171 0 ZM628 306 l0 169 l-169 0 l0 -68 q0 -48 -3 -101 l172 0 ZM459 706 l0 -171 l169 0 l0 171 l-169 0 ZM861 706 l-171 0 l0 -171 l171 0 l0 171 ZM925 9 q0 -55 -34 -70 q-18 -8 -53 -10 q-15 -2 -38 -2 l-46 0 q-8 33 -21 63 q80 -3 109 -1 q19 1 19 20 l0 237 l-171 0 l0 -303 l-62 0 l0 303 l-177 0 q-11 -96 -35 -170 q-29 -89 -79 -152 q-18 24 -50 42 q35 45 59 102 q21 51 33 113 q10 53 14 116 q3 48 3 110 l0 360 l529 0 l0 -758 Z" /><glyph glyph-name="" unicode="&#x6301;" d="M350 338 q-55 -19 -111 -38 l0 -294 q0 -51 -33 -67 q-28 -14 -123 -12 q-3 27 -20 62 q72 -3 96 -1 q18 0 18 18 l0 274 l-66 -22 q-29 -10 -61 -20 l-19 63 q27 8 67 21 l79 25 l0 223 l-131 0 l0 62 l131 0 l0 203 l62 0 l0 -203 l109 0 l0 -62 l-109 0 l0 -205 l102 33 l9 -60 ZM503 238 q79 -94 114 -173 l-55 -34 q-14 35 -46 87 q-30 48 -64 89 l51 31 ZM824 447 l0 -116 l125 0 l0 -62 l-125 0 l0 -260 q0 -59 -37 -72 q-32 -12 -150 -12 q-5 30 -21 65 q38 -1 78 -1 q33 0 48 1 q19 0 19 19 l0 260 l-387 0 l0 62 l387 0 l0 116 l-399 0 l0 62 l267 0 l0 134 l-214 0 l0 61 l214 0 l0 126 l63 0 l0 -126 l215 0 l0 -61 l-215 0 l0 -134 l263 0 l0 -62 l-131 0 Z" /><glyph glyph-name="" unicode="&#x6307;" d="M390 343 l-135 -42 l0 -296 q0 -52 -34 -68 q-31 -14 -130 -12 q-3 25 -21 61 q29 -1 63 -1 l38 0 q19 1 19 19 l0 277 l-134 -41 l-20 65 q69 18 154 43 l0 221 l-142 0 l0 63 l142 0 l0 203 l65 0 l0 -203 l120 0 l0 -63 l-120 0 l0 -202 l126 38 l9 -62 ZM506 300 l0 -106 l337 0 l0 106 l-337 0 ZM843 27 l0 112 l-337 0 l0 -112 l337 0 ZM443 358 l466 0 l0 -429 l-66 0 l0 42 l-337 0 l0 -46 l-63 0 l0 433 ZM818 507 q42 0 54 22 q12 22 17 105 q27 -19 62 -26 q-8 -99 -32 -130 q-25 -32 -97 -32 l-239 0 q-83 0 -112 20 q-29 20 -29 81 l0 284 l66 0 l0 -152 q99 21 182 44 q94 27 147 50 l52 -49 q-70 -28 -179 -56 q-47 -12 -101 -23 q-49 -11 -101 -21 l0 -77 q0 -25 14 -33 q14 -7 63 -7 l233 0 Z" /><glyph glyph-name="" unicode="&#x6309;" d="M446 515 l-62 0 l0 190 l250 0 q-18 70 -39 122 l66 12 q28 -71 45 -134 l235 0 l0 -189 l-65 0 l0 129 l-430 0 l0 -130 ZM247 271 l0 -267 q0 -52 -34 -68 q-27 -12 -129 -12 q-5 29 -21 61 q29 -1 63 -1 l37 0 q19 0 19 19 l0 247 l-68 -22 q-39 -13 -63 -20 l-16 64 l147 43 l0 255 l-136 0 l0 63 l136 0 l0 201 l65 0 l0 -201 l110 0 l0 -63 l-110 0 l0 -234 l120 37 l10 -60 l-130 -42 ZM578 383 q-16 -37 -35 -78 l-35 -71 q34 -16 81 -41 l84 -45 q75 90 100 235 l-195 0 ZM845 383 q-34 -167 -115 -268 q139 -81 218 -142 l-48 -51 q-75 61 -215 145 q-104 -94 -292 -144 q-8 27 -33 58 q175 40 267 121 q-102 59 -207 110 q20 33 43 79 q21 40 44 92 l-150 0 l0 60 l175 0 q36 88 58 161 l68 -9 q-22 -70 -55 -152 l352 0 l0 -60 l-110 0 Z" /><glyph glyph-name="" unicode="&#x6311;" d="M939 692 q-35 -63 -66 -115 q-38 -63 -66 -102 l-47 26 q68 98 118 221 l61 -30 ZM442 472 q-21 97 -99 214 l50 27 q77 -107 104 -212 l-55 -29 ZM236 307 l0 -303 q0 -53 -32 -68 q-28 -14 -123 -12 q-6 33 -20 62 q71 -3 95 -1 q18 0 18 19 l0 281 l-123 -47 l-19 64 l65 22 l77 28 l0 218 l-129 0 l0 62 l129 0 l0 203 l62 0 l0 -203 l102 0 l0 -62 l-102 0 l0 -196 l94 34 l12 -60 l-106 -41 ZM509 829 l62 0 l0 -439 q0 -83 -8 -142 q-9 -71 -32 -125 q-26 -61 -72 -108 q-50 -51 -125 -89 q-16 27 -45 48 q111 55 162 137 q44 71 54 179 l-167 -123 l-36 55 l95 61 q58 38 112 77 l0 469 ZM872 -3 q18 0 25 29 q6 28 8 116 q26 -21 58 -28 q-5 -102 -22 -138 q-18 -40 -65 -40 l-108 0 q-51 0 -69 22 q-19 23 -19 86 l0 785 l63 0 l0 -445 l18 18 q127 -103 198 -185 l-44 -48 q-65 78 -172 171 l0 -297 q0 -46 32 -46 l97 0 Z" /><glyph glyph-name="" unicode="&#x6316;" d="M426 555 l-60 0 l0 164 l270 0 q-15 49 -53 110 l60 13 q40 -55 61 -117 l-23 -6 l262 0 l0 -164 l-61 0 l0 108 l-456 0 l0 -108 ZM731 603 q53 -39 106 -87 q56 -50 84 -86 l-46 -40 q-65 86 -187 179 l43 34 ZM344 347 l-107 -36 l0 -306 q0 -51 -32 -68 q-31 -13 -124 -12 q-3 28 -20 63 q28 -1 60 -1 l35 0 q18 0 18 19 l0 285 l-115 -39 l-18 64 l133 41 l0 213 l-127 0 l0 62 l127 0 l0 202 l63 0 l0 -202 l96 0 l0 -62 l-96 0 l0 -192 l98 31 l9 -62 ZM614 579 q-41 -51 -101 -102 q-58 -48 -117 -83 q-8 10 -20 23 q-15 16 -24 23 q124 64 205 160 l57 -21 ZM834 15 q30 0 39 23 q11 27 13 118 q33 -17 59 -22 q-6 -115 -31 -150 q-21 -30 -83 -30 l-291 0 q-133 0 -133 83 q0 19 6 34 q9 22 34 50 q30 32 86 77 q62 49 161 117 l-287 0 l0 58 l383 0 l15 2 l43 -24 q-3 -7 -12 -12 q-122 -80 -200 -136 q-71 -50 -109 -84 q-34 -28 -46 -47 q-5 -8 -7 -15 q-2 -6 -2 -12 q0 -30 64 -30 l298 0 Z" /><glyph glyph-name="" unicode="&#x6321;" d="M916 753 q-12 -35 -22 -65 l-24 -66 q-28 -73 -49 -115 l-54 18 q21 46 45 119 q23 68 38 127 l66 -18 ZM483 516 q-10 44 -32 112 q-20 62 -42 121 l56 18 q24 -57 45 -119 q22 -65 33 -110 l-60 -22 ZM372 340 q-11 -4 -30 -10 q-2 0 -4 -1 l-12 -4 q-8 -2 -15 -5 q-36 -11 -61 -20 l0 -292 q0 -51 -34 -68 q-30 -13 -128 -11 q-3 22 -20 61 q28 -1 61 -1 l37 0 q18 1 18 19 l0 272 l-133 -44 l-19 66 l152 45 l0 222 l-137 0 l0 63 l137 0 l0 203 l66 0 l0 -203 l120 0 l0 -63 l-120 0 l0 -201 l114 35 l8 -63 ZM691 468 l217 0 l0 -536 l-65 0 l0 66 l-474 0 l0 64 l474 0 l0 144 l-439 0 l0 61 l439 0 l0 137 l-451 0 l0 64 l235 0 l0 364 l64 0 l0 -364 Z" /><glyph glyph-name="" unicode="&#x6325;" d="M415 596 l-62 0 l0 185 l568 0 l0 -186 l-64 0 l0 125 l-442 0 l0 -124 ZM224 293 l0 -285 q0 -51 -31 -67 q-28 -15 -112 -13 q-6 32 -21 63 q67 -2 85 0 q16 0 16 16 l0 265 l-105 -33 l-18 63 q45 12 123 37 l0 231 l-109 0 l0 62 l109 0 l0 203 l63 0 l0 -203 l95 0 l0 -62 l-95 0 l0 -211 l97 30 l10 -61 l-107 -35 ZM953 100 l-254 0 l0 -172 l-65 0 l0 172 l-305 0 l0 61 l305 0 l0 120 l-134 0 q-71 0 -85 -14 q-6 24 -22 62 q19 5 50 64 q21 36 53 117 l-100 0 l0 56 l122 0 l18 56 q10 32 17 58 l66 -17 q-6 -22 -15 -48 l-18 -49 l291 0 l0 -56 l-313 0 q-41 -97 -81 -169 l151 0 l0 121 l65 0 l0 -121 l191 0 l0 -60 l-191 0 l0 -120 l254 0 l0 -61 Z" /><glyph glyph-name="" unicode="&#x636e;" d="M352 338 q-26 -10 -58 -20 l-58 -19 l0 -290 q0 -52 -32 -67 q-28 -14 -123 -12 q-6 34 -20 61 q76 -2 95 0 q18 0 18 18 l0 269 l-122 -40 l-18 64 q25 7 64 19 l76 24 l0 225 l-127 0 l0 62 l127 0 l0 203 l62 0 l0 -203 l115 0 l0 -62 l-115 0 l0 -206 l107 34 l9 -60 ZM665 426 l0 114 l-202 0 l0 -80 q0 -19 -1 -34 l203 0 ZM463 733 l0 -135 l393 0 l0 135 l-393 0 ZM861 182 l-319 0 l0 -160 l319 0 l0 160 ZM728 367 l0 -128 l194 0 l0 -312 l-61 0 l0 39 l-319 0 l0 -43 l-59 0 l0 316 l182 0 l0 128 l-205 0 q-4 -61 -11 -114 q-8 -62 -21 -116 q-15 -61 -35 -111 q-23 -56 -54 -101 q-8 8 -25 20 q-16 11 -28 17 q37 55 61 125 q21 63 34 138 q10 64 14 139 q2 31 2 66 q1 28 1 62 l0 299 l521 0 l0 -251 l-191 0 l0 -114 l226 0 l0 -59 l-226 0 Z" /><glyph glyph-name="" unicode="&#x6377;" d="M233 312 l0 -309 q0 -51 -32 -66 q-25 -11 -122 -11 q-7 33 -21 60 q70 -3 96 -1 q18 0 18 18 l0 289 l-121 -41 l-20 65 q27 7 65 19 q27 9 76 24 l0 210 l-128 0 l0 61 l128 0 l0 202 l61 0 l0 -202 l112 0 l0 -61 l-112 0 l0 -190 l107 35 l11 -62 l-118 -40 ZM672 336 l153 0 l0 91 l-153 0 l0 -91 ZM672 482 l153 0 l0 80 l-153 0 l0 -80 ZM965 -10 q-16 -24 -22 -58 l-176 0 q-125 0 -199 31 q-84 35 -133 122 q-41 -104 -110 -172 l-23 21 q-14 11 -27 20 q58 51 94 132 q34 77 49 180 l61 -8 q-7 -48 -20 -98 q46 -115 151 -149 l0 271 l-206 0 l0 54 l206 0 l0 91 l-262 0 l0 55 l262 0 l0 80 l-206 0 l0 54 l206 0 l0 72 l-249 0 l0 56 l249 0 l0 89 l62 0 l0 -89 l263 0 l0 -56 l-263 0 l0 -72 l216 0 l0 -134 l74 0 l0 -55 l-74 0 l0 -145 l-216 0 l0 -89 l229 0 l0 -55 l-229 0 l0 -142 q45 -6 98 -6 l195 0 Z" /><glyph glyph-name="" unicode="&#x6389;" d="M357 341 q-25 -9 -59 -20 l-59 -20 l0 -291 q0 -54 -35 -69 q-27 -12 -133 -12 q-5 26 -21 61 q83 -2 104 0 q19 0 19 19 l0 269 l-60 -18 l-55 -19 l-18 65 l62 17 q37 11 71 22 l0 226 l-124 0 l0 63 l124 0 l0 201 l66 0 l0 -201 l112 0 l0 -63 l-112 0 l0 -205 l111 36 l7 -61 ZM450 295 l367 0 l0 98 l-367 0 l0 -98 ZM450 445 l367 0 l0 97 l-367 0 l0 -97 ZM954 92 l-284 0 l0 -168 l-65 0 l0 168 l-283 0 l0 60 l283 0 l0 89 l-218 0 l0 354 l216 0 l0 241 l66 0 l0 -87 l276 0 l0 -58 l-276 0 l0 -96 l213 0 l0 -354 l-212 0 l0 -89 l284 0 l0 -60 Z" /><glyph glyph-name="" unicode="&#x638c;" d="M147 506 l-62 0 l0 195 l172 0 q-30 52 -73 104 l57 23 q55 -59 79 -105 l-45 -22 l190 0 l0 135 l67 0 l0 -135 l186 0 l-41 18 q24 25 46 54 q27 33 40 56 l66 -25 q-46 -57 -94 -103 l185 0 l0 -195 l-64 0 l0 138 l-709 0 l0 -138 ZM289 446 l427 0 l0 85 l-427 0 l0 -85 ZM227 400 l0 178 l554 0 l0 -178 l-554 0 ZM941 64 l-410 0 l0 -69 q0 -51 -42 -63 q-21 -6 -67 -7 q-19 -1 -49 -1 l-62 0 q-4 20 -23 52 q49 -1 98 -1 q40 0 56 1 q24 1 24 20 l0 68 l-405 0 l0 49 l405 0 l0 72 l-348 0 l0 49 l348 0 l0 65 q-163 -8 -302 -8 q0 19 -13 45 q177 2 344 13 q88 5 158 12 q77 7 128 16 l43 -43 q-57 -10 -135 -18 q-71 -7 -158 -13 l0 -69 l357 0 l0 -49 l-357 0 l0 -72 l410 0 l0 -49 Z" /><glyph glyph-name="" unicode="&#x6398;" d="M231 297 l0 -288 q0 -52 -32 -67 q-28 -13 -124 -12 q-3 25 -19 61 q76 -2 95 0 q18 0 18 18 l0 268 l-119 -40 l-18 64 l137 42 l0 227 l-123 0 l0 62 l123 0 l0 203 l62 0 l0 -203 l100 0 l0 -62 l-100 0 l0 -207 q16 6 47 16 l47 15 l10 -61 l-104 -36 ZM433 735 l0 -131 l423 0 l0 131 l-423 0 ZM433 547 l0 -58 q0 -71 -3 -134 q-4 -79 -13 -149 q-11 -81 -29 -148 q-21 -77 -50 -135 q-22 22 -52 36 q28 55 46 127 q16 63 26 138 q8 64 11 139 l2 65 l0 364 l548 0 l0 -245 l-486 0 ZM924 198 l0 -269 l-57 0 l0 36 l-397 0 l0 232 l57 0 l0 -177 l137 0 l0 237 l-178 0 l0 220 l55 0 l0 -165 l123 0 l0 203 l57 0 l0 -203 l129 0 l0 165 l57 0 l0 -220 l-186 0 l0 -237 l146 0 l0 178 l57 0 Z" /><glyph glyph-name="" unicode="&#x63a5;" d="M921 669 l-536 0 l0 59 l232 0 q-13 28 -23 46 q-14 25 -26 43 l61 11 q34 -49 59 -100 l233 0 l0 -59 ZM533 502 q-27 66 -75 131 l50 21 q51 -64 77 -127 l-52 -25 ZM947 437 l-598 0 l0 58 l335 0 q54 79 88 159 l63 -17 l-42 -74 q-24 -41 -43 -68 l197 0 l0 -58 ZM228 296 l0 -291 q0 -50 -31 -66 q-27 -14 -115 -12 q-7 35 -20 62 q65 -3 87 -1 q17 0 17 17 l0 271 l-116 -38 l-18 63 l62 19 q39 12 72 23 l0 227 l-121 0 l0 62 l121 0 l0 203 l62 0 l0 -203 l104 0 l0 -62 l-104 0 l0 -208 l91 30 l10 -61 l-101 -35 ZM559 266 q-31 -51 -63 -98 q46 -15 85 -29 q47 -17 88 -34 q69 62 99 161 l-209 0 ZM836 266 q-32 -117 -103 -188 q124 -53 198 -105 l-44 -51 q-79 55 -207 113 q-114 -77 -330 -108 q-8 30 -28 57 q190 21 290 80 q-104 44 -209 75 q39 49 88 127 l-154 0 l0 58 l188 0 q28 48 53 107 l62 -13 q-21 -45 -47 -94 l366 0 l0 -58 l-123 0 Z" /><glyph glyph-name="" unicode="&#x63a7;" d="M430 541 l-61 0 l0 172 l267 0 q-8 23 -21 54 l-24 53 l61 16 l31 -63 q16 -36 24 -60 l243 0 l0 -161 l-63 0 l0 102 l-457 0 l0 -113 ZM739 592 q53 -46 102 -92 q58 -54 87 -86 l-44 -43 q-28 33 -84 88 q-50 49 -103 97 l42 36 ZM621 571 q-85 -123 -205 -211 l-19 25 q-14 17 -23 24 q117 77 189 182 l58 -20 ZM343 329 q-12 -5 -28 -10 l-82 -30 l0 -278 q0 -52 -32 -67 q-28 -14 -123 -12 q-6 34 -20 61 q76 -2 95 0 q18 0 18 18 l0 255 l-119 -42 l-15 65 l134 44 l0 244 l-123 0 l0 61 l123 0 l0 198 l62 0 l0 -198 l107 0 l0 -61 l-107 0 l0 -222 l99 34 l11 -60 ZM960 18 l0 -60 l-626 0 l0 60 l283 0 l0 257 l-201 0 l0 60 l473 0 l0 -60 l-205 0 l0 -257 l276 0 Z" /><glyph glyph-name="" unicode="&#x63a8;" d="M239 364 l107 34 l10 -61 q-60 -19 -117 -39 l0 -290 q0 -53 -33 -70 q-28 -13 -124 -12 q-6 31 -21 64 q77 -2 96 0 q18 0 18 18 l0 269 l-121 -40 l-18 64 l139 42 l0 229 l-131 0 l0 62 l131 0 l0 201 l64 0 l0 -201 l115 0 l0 -62 l-115 0 l0 -208 ZM495 57 l176 0 l0 142 l-176 0 l0 -142 ZM671 594 l-176 0 l0 -136 l176 0 l0 136 ZM671 398 l-176 0 l0 -139 l176 0 l0 139 ZM949 -5 l-454 0 l0 -71 l-64 0 l0 594 q-44 -73 -85 -120 l-23 24 q-17 16 -27 23 q132 143 206 384 l62 -16 q-12 -38 -28 -79 q-14 -37 -32 -78 l207 0 q-20 69 -71 148 l57 23 q55 -84 75 -146 l-55 -25 l212 0 l0 -62 l-195 0 l0 -136 l179 0 l0 -60 l-179 0 l0 -139 l178 0 l0 -60 l-178 0 l0 -142 l215 0 l0 -62 Z" /><glyph glyph-name="" unicode="&#x63cf;" d="M342 336 q-18 -6 -55 -19 q-37 -12 -56 -19 l0 -289 q0 -51 -31 -67 q-29 -14 -124 -12 q-3 28 -20 61 q77 -2 96 0 q18 0 18 18 l0 268 l-120 -39 l-18 64 q21 7 64 20 q2 0 9 2 l65 20 l0 226 l-123 0 l0 62 l123 0 l0 203 l61 0 l0 -203 l110 0 l0 -62 l-110 0 l0 -206 l103 33 l8 -61 ZM466 389 l0 -145 l158 0 l0 145 l-158 0 ZM847 389 l-162 0 l0 -145 l162 0 l0 145 ZM847 37 l0 148 l-162 0 l0 -148 l162 0 ZM466 37 l158 0 l0 148 l-158 0 l0 -148 ZM404 449 l507 0 l0 -519 l-64 0 l0 47 l-381 0 l0 -52 l-62 0 l0 524 ZM947 690 l0 -61 l-133 0 l0 -133 l-64 0 l0 133 l-185 0 l0 -133 l-64 0 l0 133 l-142 0 l0 61 l142 0 l0 145 l64 0 l0 -145 l185 0 l0 145 l64 0 l0 -145 l133 0 Z" /><glyph glyph-name="" unicode="&#x63d0;" d="M814 750 l-342 0 l0 -84 l342 0 l0 84 ZM814 618 l-342 0 l0 -86 l342 0 l0 86 ZM877 481 l-466 0 l0 321 l466 0 l0 -321 ZM344 336 q-18 -6 -55 -19 q-37 -12 -56 -19 l0 -289 q0 -52 -32 -67 q-28 -13 -124 -12 q-3 25 -19 61 q76 -2 95 0 q18 0 18 18 l0 268 q-25 -9 -63 -21 l-57 -18 l-18 64 q21 7 64 20 q2 0 9 2 l65 20 l0 226 l-126 0 l0 62 l126 0 l0 202 l62 0 l0 -202 l112 0 l0 -62 l-112 0 l0 -206 l103 33 l8 -61 ZM674 6 q43 -7 99 -7 l192 1 q-16 -27 -20 -60 l-174 0 q-60 0 -103 7 q-50 8 -87 25 q-83 39 -128 140 q-43 -118 -123 -188 q-20 22 -50 40 q66 52 104 137 q36 81 48 197 l62 -8 q-9 -65 -20 -107 q41 -123 138 -161 l0 326 l-246 0 l0 56 l567 0 l0 -56 l-259 0 l0 -123 l211 0 l0 -55 l-211 0 l0 -164 Z" /><glyph glyph-name="" unicode="&#x63e1;" d="M223 296 l0 -287 q0 -53 -32 -68 q-31 -13 -123 -12 q-3 26 -19 62 q74 -2 93 0 q18 0 18 18 l0 267 l-111 -37 l-17 62 l128 38 l0 231 l-114 0 l0 62 l114 0 l0 203 l63 0 l0 -203 l111 0 l0 -62 l-111 0 l0 -210 l105 34 l9 -59 l-114 -39 ZM431 740 l0 -103 l412 0 l0 103 l-412 0 ZM956 3 l0 -56 l-569 0 l0 56 l261 0 l0 116 l-200 0 l0 54 l200 0 l0 99 q-92 -8 -130 -12 q-29 -4 -43 -8 l-9 27 q-8 20 -13 30 q22 3 47 33 q14 13 37 42 q29 36 52 72 l-158 0 q-1 -70 -6 -130 q-5 -75 -17 -140 q-14 -76 -37 -138 q-25 -71 -61 -125 q-21 21 -55 36 q36 54 61 123 q21 62 33 137 q11 62 15 137 q2 31 2 65 q1 28 1 61 l0 313 l543 0 l0 -213 l-479 0 l0 -72 l480 0 l0 -54 l-248 0 q-54 -78 -112 -138 l260 17 l-34 40 q-19 22 -35 36 l48 22 q91 -84 129 -160 l-50 -24 l-10 18 q-6 11 -13 20 l-133 -10 l0 -104 l201 0 l0 -54 l-201 0 l0 -116 l243 0 Z" /><glyph glyph-name="" unicode="&#x641c;" d="M236 309 l0 -299 q0 -52 -32 -67 q-29 -14 -114 -13 q-6 36 -21 64 q26 -1 55 -1 l32 0 q16 0 16 17 l0 274 l-109 -43 l-18 64 q52 16 127 46 l0 219 l-121 0 l0 62 l121 0 l0 202 l64 0 l0 -202 l103 0 l0 -62 l-103 0 l0 -196 l101 40 l12 -60 l-113 -45 ZM485 231 q61 -88 165 -147 q108 61 165 147 l-330 0 ZM905 270 q-30 -68 -81 -123 q-48 -53 -113 -94 q108 -50 246 -72 q-20 -17 -40 -55 q-153 30 -269 91 q-67 -34 -150 -58 q-76 -23 -163 -37 q-8 27 -30 55 q161 23 284 77 q-109 71 -171 175 l5 2 l-43 0 l0 57 l237 0 l0 101 l-223 0 l0 338 q101 31 162 70 l48 -44 q-31 -17 -72 -33 q-36 -14 -79 -27 l0 -96 l112 0 l0 -52 l-112 0 l0 -100 l164 0 l0 390 l60 0 l0 -390 l173 0 l0 101 l-127 0 l0 52 l127 0 l0 97 l-131 0 l0 56 l191 0 l0 -362 l-233 0 l0 -101 l177 0 l12 3 l39 -21 Z" /><glyph glyph-name="" unicode="&#x643a;" d="M642 672 l-172 0 l0 -65 l172 0 l0 65 ZM642 562 l-172 0 l0 -67 l172 0 l0 67 ZM642 450 l-172 0 l0 -68 l172 0 l0 68 ZM226 303 l0 -296 q0 -53 -31 -66 q-24 -13 -115 -13 q-3 29 -20 62 l87 0 q17 0 17 17 l0 272 l-52 -20 q-20 -8 -48 -18 l-20 63 q22 7 56 20 l64 24 l0 222 l-114 0 l0 62 l114 0 l0 203 l62 0 l0 -203 l92 0 l0 -49 q100 97 146 253 l59 -15 q-18 -53 -38 -98 l174 0 q-25 48 -59 92 l59 22 q46 -57 67 -101 l-30 -13 l224 0 l0 -51 l-217 0 l0 -65 l185 0 l0 -45 l-185 0 l0 -67 l185 0 l0 -45 l-185 0 l0 -68 l225 0 l0 -52 l-458 0 l0 -29 l-57 0 l0 300 q-31 -45 -67 -79 q-4 8 -15 23 q-11 14 -21 25 l-84 0 l0 -200 l87 34 l12 -60 l-99 -41 ZM936 182 q0 -2 -1 -10 l-2 -17 q-18 -173 -51 -204 q-20 -20 -61 -22 q-20 -1 -50 0 q-36 0 -69 2 q-4 34 -19 57 q33 -3 70 -5 q27 -1 47 -1 q25 0 34 9 q22 20 35 140 l-199 0 l5 14 q1 4 2 5 l8 21 l14 44 l-139 0 q-26 -211 -214 -294 q-13 25 -44 49 q171 63 192 245 l-141 0 l0 56 l422 0 l-14 -45 q-8 -25 -15 -44 l190 0 Z" /><glyph glyph-name="" unicode="&#x6444;" d="M790 740 l-326 0 l0 -71 l326 0 l0 71 ZM464 430 q64 2 156 6 l170 7 l0 65 l-326 0 l0 -78 ZM790 625 l-326 0 l0 -73 l326 0 l0 73 ZM404 740 l-80 0 l0 51 l617 0 l0 -51 l-91 0 l0 -294 l102 4 l-2 -49 l-100 -5 l0 -49 l-60 0 l0 46 l-443 -21 l-9 54 l66 2 l0 312 ZM228 333 l0 -328 q0 -51 -31 -65 q-26 -13 -113 -13 q-3 29 -20 62 q67 -2 86 0 q16 0 16 16 l0 303 l-109 -41 l-19 66 l128 40 l0 220 l-115 0 l0 62 l115 0 l0 180 l62 0 l0 -180 l92 0 l0 -62 l-92 0 l0 -199 l81 28 l10 -54 l-91 -35 ZM546 -2 q-27 28 -72 67 q-79 -90 -178 -139 q-14 29 -36 47 q94 42 170 129 q-65 50 -120 88 l38 34 q32 -21 57 -39 q32 -22 58 -42 q40 55 65 119 l-219 0 l0 55 l244 0 l11 2 l36 -15 q-29 -106 -93 -196 q53 -43 79 -70 l-40 -40 ZM686 263 q31 -86 81 -149 q59 64 92 149 l-173 0 ZM928 306 q-36 -135 -125 -232 q68 -67 158 -99 q-27 -23 -40 -51 q-92 39 -158 110 q-77 -69 -184 -110 q-9 23 -33 49 q102 33 181 103 q-59 78 -93 187 l-26 0 l0 55 l276 0 l11 3 l33 -15 Z" /><glyph glyph-name="" unicode="&#x64ad;" d="M344 361 q-54 -22 -108 -42 l0 -315 q0 -53 -32 -68 q-28 -14 -123 -12 q-6 33 -20 62 q71 -3 95 -1 q18 0 18 19 l0 290 l-126 -48 l-16 65 q27 9 65 23 l77 28 l0 208 l-127 0 l0 62 l127 0 l0 203 l62 0 l0 -203 l111 0 l0 -62 l-111 0 l0 -186 l97 36 l11 -59 ZM468 254 l0 -90 l144 0 l0 90 l-144 0 ZM828 254 l-159 0 l0 -90 l159 0 l0 90 ZM828 21 l0 92 l-159 0 l0 -92 l159 0 ZM612 21 l0 92 l-144 0 l0 -92 l144 0 ZM408 306 l482 0 l0 -375 l-62 0 l0 39 l-360 0 l0 -45 l-60 0 l0 381 ZM732 517 q98 -119 241 -178 q-27 -23 -43 -50 q-155 75 -258 217 l0 -177 l-61 0 l0 171 q-103 -148 -265 -222 q-19 29 -42 49 q153 62 250 190 l-205 0 l0 57 l262 0 l0 163 q-121 -12 -233 -17 q-3 22 -16 50 q68 4 134 9 q73 6 137 13 q70 8 126 17 q61 10 102 20 l39 -50 q-87 -21 -228 -36 l0 -169 l63 0 q50 86 75 157 l58 -19 q-40 -79 -74 -138 l150 0 l0 -57 l-212 0 ZM481 712 q18 -31 33 -60 q19 -34 27 -54 l-55 -22 q-8 21 -26 57 l-33 63 l54 16 Z" /><glyph glyph-name="" unicode="&#x2f40;&#x652f;" d="M280 389 q78 -146 224 -243 q157 98 233 243 l-457 0 ZM833 428 q-42 -99 -112 -181 q-65 -77 -155 -137 q169 -88 395 -118 q-24 -28 -41 -63 q-245 38 -419 141 q-90 -51 -201 -88 q-100 -34 -221 -58 q-14 36 -37 63 q113 19 209 48 q104 32 189 76 q-146 105 -228 271 l19 7 l-105 0 l0 65 l339 0 l0 160 l-384 0 l0 65 l384 0 l0 156 l68 0 l0 -156 l384 0 l0 -65 l-384 0 l0 -160 l242 0 l13 2 l45 -28 Z" /><glyph glyph-name="" unicode="&#x6536;" d="M327 820 l66 0 l0 -897 l-66 0 l0 281 q-131 -48 -179 -69 q-23 -10 -35 -17 q-10 -6 -18 -12 q-13 37 -29 61 q14 8 23 22 q12 18 12 45 l0 490 l65 0 l0 -511 l161 54 l0 553 ZM575 566 q46 -188 125 -324 q37 67 64 153 q25 80 43 182 l-228 0 l-4 -11 ZM873 577 q-43 -245 -134 -397 q96 -137 219 -198 q-13 -12 -24 -25 q-15 -17 -22 -29 q-119 66 -210 196 q-91 -122 -235 -201 q-12 27 -43 55 q150 73 240 204 q-77 131 -124 299 q-38 -81 -84 -140 q-17 26 -47 54 q61 74 105 193 q40 109 63 247 l67 -11 q-18 -92 -44 -184 l351 0 l0 -63 l-78 0 Z" /><glyph glyph-name="" unicode="&#x653e;" d="M264 683 q-15 57 -53 136 l57 18 q17 -35 32 -69 q16 -39 24 -64 l-60 -21 ZM442 471 l0 -22 l-1 -9 q-2 -130 -5 -208 q-3 -87 -7 -139 q-8 -101 -26 -126 q-21 -27 -58 -30 q-39 -5 -108 0 q-2 33 -18 62 q29 -3 59 -4 q23 -1 39 -1 q21 0 29 14 q13 17 20 104 q7 88 12 298 l-145 0 l0 -10 q0 -70 -5 -124 q-7 -67 -22 -123 q-17 -64 -46 -118 q-33 -60 -81 -111 q-18 23 -48 43 q44 47 73 103 q27 50 42 109 q13 51 19 111 q4 48 4 110 l0 210 l-121 0 l0 62 l442 0 l0 -62 l-257 0 l0 -139 l209 0 ZM616 577 q17 -96 41 -175 q25 -85 58 -154 q71 132 102 339 l-197 0 l-4 -10 ZM884 587 q-39 -249 -132 -405 q87 -140 213 -200 q-27 -25 -46 -56 q-124 65 -208 196 q-90 -123 -241 -200 q-11 28 -39 58 q156 74 246 204 q-32 61 -58 137 q-23 70 -43 156 q-32 -73 -76 -134 q-24 29 -52 49 q58 76 102 198 q40 110 65 246 l68 -11 q-19 -97 -43 -176 l316 0 l0 -62 l-72 0 Z" /></font>
</defs>
</svg>
