<?xml version="1.0" standalone="no"?><!DOCTYPE svg PUBLIC "-//W3C//DTD SVG 1.1//EN" "http://www.w3.org/Graphics/SVG/1.1/DTD/svg11.dtd" ><svg xmlns="http://www.w3.org/2000/svg"><metadata></metadata><defs><font id="Source Han Sans CN Bold 常规:Version 1.00" horiz-adv-x="970"><font-face font-family="Source Han Sans CN Bold" font-weight="300" font-stretch="normal" units-per-em="1000" panose-1="2 0 0 0 0 0 0 0 0 0" ascent="930" descent="-243" x-height="0" bbox="7 -220 956 836" underline-thickness="0" underline-position="0" unicode-range="U+0027-ff0c" /><missing-glyph horiz-adv-x="1000"  /><glyph glyph-name="quotesingle" unicode="&#39;" d="M51 703 l129 0 l-14 -267 l-100 0 l-15 267 Z" /><glyph glyph-name="plus" unicode="+" d="M55 403 l181 0 l0 196 l120 0 l0 -196 l181 0 l0 -116 l-181 0 l0 -196 l-120 0 l0 196 l-181 0 l0 116 Z" /><glyph glyph-name="zero" unicode="0" d="M42 345 q0 172 65 265 q65 93 201 93 q136 0 201 -92.5 q65 -92.5 65 -265.5 q0 -177 -64.5 -267.5 q-64.5 -90.5 -201.5 -90.5 q-138 0 -202 90 q-64 90 -64 268 ZM183 345 q0 -127 29 -184.5 q29 -57.5 96 -57.5 q66 0 95 57.5 q29 57.5 29 184.5 q0 126 -29 183.5 q-29 57.5 -95 57.5 q-66 0 -95.5 -57.5 q-29.5 -57.5 -29.5 -183.5 Z" /><glyph glyph-name="two" unicode="2" d="M232 350 q58 42 88.5 78 q30.5 36 30.5 80 q0 15 -5 29.5 q-5 14.5 -17 25.5 q-12 11 -29 18 q-17 7 -44 7 q-30 0 -51.5 -8 q-21.5 -8 -38.5 -20.5 q-17 -12.5 -29.5 -27.5 q-12.5 -15 -21.5 -26 l-84 70 q10 16 28 38 q18 22 46 41.5 q28 19.5 67.5 33.5 q39.5 14 89.5 14 q60 0 102.5 -16 q42.5 -16 69.5 -43 q27 -27 40 -60.5 q13 -33.5 13 -68.5 q0 -42 -11.5 -75 q-11.5 -33 -32 -60.5 q-20.5 -27.5 -48 -52 q-27.5 -24.5 -59.5 -48.5 q-145 -108 -148 -164 l306 0 l0 -115 l-456 0 l0 13 q0 57 11.5 104 q11.5 47 35.5 87 q24 40 61 75.5 q37 35.5 86 70.5 Z" /><glyph glyph-name="A" unicode="a" d="M424 147 l-241 0 l-43 -147 l-130 0 l230 703 l140 0 l229 -703 l-141 0 l-44 147 ZM220 263 l168 0 l-82 277 l-86 -277 Z" /><glyph glyph-name="C" unicode="c" d="M386 595 q-48 0 -83 -19.5 q-35 -19.5 -58 -53.5 q-23 -34 -34 -77.5 q-11 -43.5 -11 -92.5 q0 -50 9 -93.5 q9 -43.5 31 -75.5 q22 -32 55.5 -50 q33.5 -18 81.5 -18 q25 0 50 4.5 q25 4.5 47.5 12 q22.5 7.5 40 16 q17.5 8.5 27.5 16.5 l54 -98 q-43 -33 -103.5 -54 q-60.5 -21 -133.5 -21 q-76 0 -133 25 q-57 25 -95 71.5 q-38 46.5 -58 113.5 q-20 67 -20 151 q0 79 21 145.5 q21 66.5 61.5 114.5 q40.5 48 100.5 75 q60 27 138 27 q73 0 128 -20.5 q55 -20.5 97 -56.5 l-62 -98 q-20 20 -58.5 38 q-38.5 18 -92.5 18 Z" /><glyph glyph-name="D" unicode="d" d="M317 703 q88 0 152 -25.5 q64 -25.5 106 -72 q42 -46.5 63 -111 q21 -64.5 21 -143.5 q0 -80 -21 -145 q-21 -65 -63.5 -110.5 q-42.5 -45.5 -106.5 -70.5 q-64 -25 -151 -25 l-243 0 l0 703 l243 0 ZM317 121 q46 0 82.5 16 q36.5 16 61.5 47 q25 31 38.5 73.5 q13.5 42.5 13.5 94.5 q0 117 -53 174 q-53 57 -143 57 l-102 0 l0 -462 l102 0 Z" /><glyph glyph-name="I" unicode="i" d="M215 0 l-141 0 l0 703 l141 0 l0 -703 Z" /><glyph glyph-name="N" unicode="n" d="M207 490 l0 -490 l-133 0 l0 703 l141 0 l276 -480 l0 480 l133 0 l0 -703 l-130 0 l-287 490 Z" /><glyph glyph-name="O" unicode="o" d="M53 352 q0 80 19.5 147.5 q19.5 67.5 59 116 q39.5 48.5 99.5 75.5 q60 27 142 27 q82 0 142.5 -27 q60.5 -27 100 -75.5 q39.5 -48.5 58.5 -116 q19 -67.5 19 -147.5 q0 -80 -19 -147.5 q-19 -67.5 -58.5 -116.5 q-39.5 -49 -100 -77 q-60.5 -28 -142.5 -28 q-82 0 -142 28 q-60 28 -99.5 77 q-39.5 49 -59 116.5 q-19.5 67.5 -19.5 147.5 ZM200 352 q0 -112 42.5 -176 q42.5 -64 130.5 -64 q88 0 131 64 q43 64 43 176 q0 112 -43 175.5 q-43 63.5 -131 63.5 q-88 0 -130.5 -63.5 q-42.5 -63.5 -42.5 -175.5 Z" /><glyph glyph-name="P" unicode="p" d="M425 474 q0 31 -10 52.5 q-10 21.5 -27 34.5 q-17 13 -39 18.5 q-22 5.5 -47 5.5 l-87 0 l0 -222 l78 0 q28 0 52 5.5 q24 5.5 42 18.5 q18 13 28 34 q10 21 10 53 ZM564 474 q0 -41 -13 -82 q-13 -41 -44 -73.5 q-31 -32.5 -83 -53 q-52 -20.5 -129 -20.5 l-80 0 l0 -245 l-141 0 l0 703 l230 0 q74 0 124 -20.5 q50 -20.5 80 -53 q30 -32.5 43 -73.5 q13 -41 13 -82 Z" /><glyph glyph-name="R" unicode="r" d="M610 0 l-160 0 l-155 262 l-82 0 l0 -262 l-139 0 l0 703 l243 0 q75 0 124 -20.5 q49 -20.5 77.5 -51.5 q28.5 -31 39 -68 q10.5 -37 10.5 -70 q0 -76 -38 -125.5 q-38 -49.5 -104 -70.5 l184 -297 ZM429 483 q0 59 -35.5 80.5 q-35.5 21.5 -105.5 21.5 l-75 0 l0 -205 l70 0 q73 0 109.5 24.5 q36.5 24.5 36.5 78.5 Z" /><glyph glyph-name="S" unicode="s" d="M226 304 q-38 11 -71.5 29 q-33.5 18 -58.5 42.5 q-25 24.5 -39.5 57 q-14.5 32.5 -14.5 71.5 q0 105 62 159.5 q62 54.5 179 54.5 q34 0 66.5 -4.5 q32.5 -4.5 60 -12.5 q27.5 -8 50.5 -18 q23 -10 40 -20 l-51 -106 q-20 12 -63.5 27 q-43.5 15 -102.5 15 q-18 0 -35.5 -4 q-17.5 -4 -32 -13.5 q-14.5 -9.5 -23.5 -25 q-9 -15.5 -9 -38.5 q0 -13 4 -25.5 q4 -12.5 15.5 -24.5 q11.5 -12 31 -22.5 q19.5 -10.5 49.5 -19.5 l65 -18 q87 -25 134.5 -73 q47.5 -48 47.5 -133 q0 -50 -19.5 -90 q-19.5 -40 -53.5 -68.5 q-34 -28.5 -80 -44.5 q-46 -16 -99 -16 q-49 0 -90 8 q-41 8 -73 17.5 q-32 9.5 -52.5 20 q-20.5 10.5 -27.5 15.5 l51 111 q12 -7 31.5 -15 q19.5 -8 44 -15.5 q24.5 -7.5 55 -12.5 q30.5 -5 62.5 -5 q18 0 37.5 5 q19.5 5 35 15 q15.5 10 25.5 25.5 q10 15.5 10 38.5 q0 13 -4 26.5 q-4 13.5 -15 26 q-11 12.5 -29.5 23.5 q-18.5 11 -48.5 19 l-64 18 Z" /><glyph glyph-name="V" unicode="v" d="M317 164 l157 539 l143 0 l-231 -703 l-139 0 l-240 703 l150 0 l160 -539 Z" /><glyph glyph-name="a" unicode="a" d="M345 223 q-19 3 -43 6 q-24 3 -55 3 q-52 0 -71 -20 q-19 -20 -19 -59 q0 -32 22 -49.5 q22 -17.5 57 -17.5 q21 0 41 5.5 q20 5.5 35 16 q15 10.5 24 26.5 q9 16 9 36 l0 53 ZM208 -13 q-33 0 -63.5 8 q-30.5 8 -54.5 27 q-24 19 -38.5 50 q-14.5 31 -14.5 78 q0 85 50.5 128 q50.5 43 155.5 43 q14 0 30.5 -1.5 q16.5 -1.5 31.5 -2 q15 -0.5 26 -2 q11 -1.5 14 -2.5 l0 18 q0 40 -26 59.5 q-26 19.5 -71 19.5 q-60 0 -98 -12 q-38 -12 -53 -22 l-39 89 q7 5 23 14 q16 9 41.5 17.5 q25.5 8.5 60 14.5 q34.5 6 77.5 6 q113 0 163 -48 q50 -48 50 -133 l0 -336 l-116 0 l-4 51 q-19 -23 -55 -43.5 q-36 -20.5 -90 -20.5 Z" /><glyph glyph-name="c" unicode="c" d="M177 252 q0 -78 33.5 -114 q33.5 -36 96.5 -36 q42 0 68 11 q26 11 40 20 l51 -91 q-9 -6 -24 -15.5 q-15 -9.5 -37 -18.5 q-22 -9 -49.5 -15.5 q-27.5 -6.5 -61.5 -6.5 q-125 0 -188.5 71.5 q-63.5 71.5 -63.5 194.5 q0 60 17.5 108.5 q17.5 48.5 50 83.5 q32.5 35 79 54 q46.5 19 104.5 19 q37 0 68 -8.5 q31 -8.5 54 -19.5 q23 -11 37 -21.5 q14 -10.5 18 -14.5 l-60 -92 q-5 3 -15 10 q-10 7 -24 13.5 q-14 6.5 -31.5 11.5 q-17.5 5 -36.5 5 q-56 0 -91 -37 q-35 -37 -35 -112 Z" /><glyph glyph-name="d" unicode="d" d="M282 402 q-29 0 -47 -11.5 q-18 -11.5 -31.5 -31.5 q-13.5 -20 -19.5 -48 q-6 -28 -6 -59 q0 -79 27.5 -112 q27.5 -33 84.5 -33 q37 0 63.5 14 q26.5 14 37.5 27 l0 87 q0 35 -4.5 65.5 q-4.5 30.5 -17.5 53 q-13 22.5 -34.5 35.5 q-21.5 13 -52.5 13 ZM407 50 q-16 -19 -52.5 -37.5 q-36.5 -18.5 -89.5 -18.5 q-44 0 -84 11.5 q-40 11.5 -71 42 q-31 30.5 -49 80 q-18 49.5 -18 124.5 q0 55 12.5 103 q12.5 48 38.5 84 q26 36 65.5 57 q39.5 21 93.5 21 q27 0 50 -6.5 q23 -6.5 40 -17 q17 -10.5 29.5 -22.5 q12.5 -12 18.5 -22 l0 301 l134 0 l0 -750 l-115 0 l-3 50 Z" /><glyph glyph-name="e" unicode="e" d="M315 99 q49 0 82 7.5 q33 7.5 50 11.5 l32 -93 q-20 -11 -65.5 -25 q-45.5 -14 -115.5 -14 q-126 0 -191 72 q-65 72 -65 197 q0 59 15.5 108 q15.5 49 46 83 q30.5 34 75.5 52.5 q45 18.5 104 18.5 q53 0 94 -15.5 q41 -15.5 70 -48.5 q29 -33 43.5 -86 q14.5 -53 14.5 -128 l0 -27 l-332 0 q5 -48 38 -80.5 q33 -32.5 104 -32.5 ZM379 305 q-4 52 -25 78.5 q-21 26.5 -71 26.5 q-52 0 -78.5 -28.5 q-26.5 -28.5 -31.5 -76.5 l206 0 Z" /><glyph glyph-name="i" unicode="i" d="M66 504 l134 0 l0 -504 l-134 0 l0 504 ZM209 676 q0 -35 -20.5 -58 q-20.5 -23 -55.5 -23 q-35 0 -55.5 23.5 q-20.5 23.5 -20.5 57.5 q0 34 20.5 57.5 q20.5 23.5 55.5 23.5 q35 0 55.5 -22.5 q20.5 -22.5 20.5 -58.5 Z" /><glyph glyph-name="l" unicode="l" d="M200 0 l-134 0 l0 750 l134 0 l0 -750 Z" /><glyph glyph-name="n" unicode="n" d="M196 0 l-134 0 l0 504 l121 0 l5 -67 q8 13 20.5 27 q12.5 14 30.5 26 q18 12 42 19.5 q24 7.5 54 7.5 q96 0 137 -52.5 q41 -52.5 41 -144.5 l0 -320 l-134 0 l0 312 q0 52 -22 71 q-22 19 -54 19 q-33 0 -54 -13 q-21 -13 -32.5 -36 q-11.5 -23 -16 -53.5 q-4.5 -30.5 -4.5 -64.5 l0 -235 Z" /><glyph glyph-name="o" unicode="o" d="M292 101 q61 0 87.5 41 q26.5 41 26.5 110 q0 69 -28.5 109.5 q-28.5 40.5 -85.5 40.5 q-57 0 -86 -40.5 q-29 -40.5 -29 -109.5 q0 -69 26 -110 q26 -41 89 -41 ZM292 517 q58 0 104 -18.5 q46 -18.5 78.5 -52.5 q32.5 -34 49.5 -83.5 q17 -49.5 17 -110.5 q0 -129 -66 -197.5 q-66 -68.5 -183 -68.5 q-117 0 -183.5 69 q-66.5 69 -66.5 197 q0 61 17.5 110.5 q17.5 49.5 50 83.5 q32.5 34 78.5 52.5 q46 18.5 104 18.5 Z" /><glyph glyph-name="p" unicode="p" d="M305 402 q-33 0 -54 -13.5 q-21 -13.5 -33.5 -36.5 q-12.5 -23 -17 -53.5 q-4.5 -30.5 -4.5 -64.5 l0 -103 q11 -8 36 -18 q25 -10 62 -10 q53 0 84 37 q31 37 31 116 q0 62 -25.5 104 q-25.5 42 -78.5 42 ZM332 517 q56 0 96.5 -19.5 q40.5 -19.5 66.5 -54 q26 -34.5 38 -82.5 q12 -48 12 -105 q0 -70 -19.5 -120 q-19.5 -50 -51 -82.5 q-31.5 -32.5 -73 -48 q-41.5 -15.5 -84.5 -15.5 q-65 0 -121 31 l0 -241 l-134 0 l0 724 l121 0 l4 -62 q7 13 20.5 27 q13.5 14 32 24 q18.5 10 42 17 q23.5 7 50.5 7 Z" /><glyph glyph-name="r" unicode="r" d="M334 513 q30 0 44.5 -3 q14.5 -3 22.5 -6 l-10 -114 q-5 2 -22.5 5.5 q-17.5 3.5 -40.5 3.5 q-24 0 -47 -8 q-23 -8 -42 -30 q-19 -22 -30.5 -58 q-11.5 -36 -11.5 -90 l0 -213 l-134 0 l0 504 l122 0 l5 -77 q7 14 21 29 q14 15 33 28 q19 13 42 21 q23 8 48 8 Z" /><glyph glyph-name="s" unicode="s" d="M72 135 q27 -15 67 -29.5 q40 -14.5 105 -14.5 q44 0 61.5 13 q17.5 13 17.5 33 q0 20 -14.5 33 q-14.5 13 -58.5 23 l-57 12 q-32 7 -59.5 18 q-27.5 11 -47.5 29 q-20 18 -31.5 44 q-11.5 26 -11.5 63 q0 33 13.5 62 q13.5 29 39 50 q25.5 21 62.5 33.5 q37 12.5 84 12.5 q63 0 114.5 -14.5 q51.5 -14.5 80.5 -33.5 l-39 -92 q-21 10 -57.5 22.5 q-36.5 12.5 -88.5 12.5 q-48 0 -67.5 -13 q-19.5 -13 -19.5 -35 q0 -17 11.5 -29 q11.5 -12 52.5 -20 l59 -12 q86 -17 124.5 -53.5 q38.5 -36.5 38.5 -102.5 q0 -75 -51 -118 q-51 -43 -160 -43 q-72 0 -128.5 19 q-56.5 19 -84.5 42 l45 88 Z" /><glyph glyph-name="t" unicode="t" d="M317 103 q21 0 36.5 2 q15.5 2 26.5 4 l8 -108 q-13 -3 -40.5 -7 q-27.5 -4 -64.5 -4 q-95 0 -135 43.5 q-40 43.5 -40 117.5 l0 240 l-91 0 l0 113 l91 0 l0 128 l134 30 l0 -158 l130 0 l0 -113 l-130 0 l0 -218 q0 -44 20.5 -57 q20.5 -13 54.5 -13 Z" /><glyph glyph-name="u" unicode="u" d="M377 504 l135 0 l0 -504 l-124 0 l-5 66 q-19 -32 -57.5 -55.5 q-38.5 -23.5 -99.5 -23.5 q-89 0 -127.5 52 q-38.5 52 -38.5 144 l0 321 l134 0 l0 -312 q0 -52 22 -71 q22 -19 53 -19 q32 0 53 13 q21 13 33 35.5 q12 22.5 17 52.5 q5 30 5 65 l0 236 Z" /><glyph glyph-name="v" unicode="v" d="M188 0 l-180 504 l148 0 l109 -372 l104 372 l144 0 l-180 -504 l-145 0 Z" /><glyph glyph-name="w" unicode="w" d="M8 504 l139 0 l79 -362 l78 341 l113 0 l75 -341 l78 362 l132 0 l-137 -504 l-136 0 l-74 307 l-75 -307 l-133 0 l-139 504 Z" /><glyph glyph-name="braceleft" unicode="{" d="M49 363 q47 8 63.5 34 q16.5 26 16.5 61 l0 108 q0 43 11.5 77 q11.5 34 38.5 58 q27 24 70 36.5 q43 12.5 106 12.5 l0 -113 q-35 0 -54 -8.5 q-19 -8.5 -30 -22 q-11 -13.5 -13.5 -32 q-2.5 -18.5 -2.5 -37.5 l0 -117 q0 -38 -16.5 -65.5 q-16.5 -27.5 -50.5 -47.5 q34 -20 50.5 -46.5 q16.5 -26.5 16.5 -66.5 l0 -117 q0 -19 2.5 -37 q2.5 -18 13.5 -32 q11 -14 30 -22.5 q19 -8.5 54 -8.5 l0 -113 q-63 0 -106.5 12 q-43.5 12 -70 36.5 q-26.5 24.5 -38 58.5 q-11.5 34 -11.5 78 l0 107 q0 35 -16.5 61 q-16.5 26 -63.5 34 l0 112 Z" /><glyph glyph-name="bar" unicode="|" d="M83 -220 l0 970 l124 0 l0 -970 l-124 0 Z" /><glyph glyph-name="braceright" unicode="}" d="M335 251 q-47 -8 -63.5 -34 q-16.5 -26 -16.5 -61 l0 -107 q0 -44 -11.5 -78 q-11.5 -34 -38 -58.5 q-26.5 -24.5 -69.5 -36.5 q-43 -12 -107 -12 l0 113 q35 0 55 8.5 q20 8.5 30 22.5 q10 14 12.5 32 q2.5 18 2.5 37 l0 117 q0 40 16.5 66.5 q16.5 26.5 49.5 46.5 q-33 20 -49.5 47.5 q-16.5 27.5 -16.5 65.5 l0 117 q0 19 -2.5 37.5 q-2.5 18.5 -13 32 q-10.5 13.5 -30.5 22 q-20 8.5 -54 8.5 l0 113 q63 0 106.5 -12.5 q43.5 -12.5 70 -36.5 q26.5 -24 38 -58 q11.5 -34 11.5 -77 l0 -108 q0 -35 16.5 -61 q16.5 -26 63.5 -34 l0 -112 Z" /><glyph glyph-name="uni2F00" unicode="&#x2f00;&#x4e00;" d="M931 441 l0 -125 l-891 0 l0 125 l891 0 Z" /><glyph glyph-name="uni4E03" unicode="&#x4e03;" d="M710 61 q47 0 63 39 q14 35 23 162 q54 -40 119 -55 q-12 -149 -50 -203 q-42 -58 -147 -58 l-212 0 q-110 0 -151 39 q-39 41 -39 152 l0 237 l-254 -38 l-19 116 l273 42 l0 308 l127 0 l0 -289 l475 73 l20 -119 l-495 -74 l0 -257 q0 -49 12 -62 q13 -13 61 -13 l194 0 Z" /><glyph glyph-name="uni4E0E" unicode="&#x4e0e;" d="M653 143 l-603 0 l0 110 l603 0 l0 -110 ZM885 462 q-2 -35 -4 -50 q-33 -373 -97 -435 q-37 -40 -115 -48 q-56 -4 -181 1 q-3 59 -44 116 q76 -7 188 -7 q37 0 52 11 q48 36 73 305 l-504 0 l-100 1 q52 194 90 451 l118 -12 q-11 -67 -15 -90 l514 0 l0 -111 l-535 0 l-26 -132 l586 0 Z" /><glyph glyph-name="uni4E13" unicode="&#x4e13;" d="M404 430 l-23 -81 l379 0 l19 5 l89 -51 q-90 -96 -232 -234 q86 -34 135 -59 l-67 -101 q-172 99 -463 176 l61 88 q109 -26 215 -62 l132 130 l-431 0 q28 74 63 189 l-230 0 l0 111 l262 0 q19 70 22 82 l-203 0 l0 110 l232 0 l20 88 l123 0 l-23 -88 l361 0 l0 -110 l-388 0 l-22 -82 l479 0 l0 -111 l-510 0 Z" /><glyph glyph-name="uni4E16" unicode="&#x4e16;" d="M543 478 l0 -183 l134 0 l0 183 l-134 0 ZM428 189 l0 289 l-132 0 l0 -398 l605 0 l0 -112 l-725 0 l0 510 l-131 0 l0 111 l131 0 l0 205 l120 0 l0 -205 l132 0 l0 226 l115 0 l0 -226 l134 0 l0 217 l121 0 l0 -217 l128 0 l0 -111 l-128 0 l0 -289 l-370 0 Z" /><glyph glyph-name="uni4E1A" unicode="&#x4e1a;" d="M181 219 q-33 146 -117 368 l106 31 q92 -230 126 -358 l-115 -41 ZM920 76 l0 -116 l-868 0 l0 116 l251 0 l0 734 l119 0 l0 -734 l128 0 l0 734 l119 0 l0 -535 q89 170 139 341 l104 -50 q-66 -189 -155 -352 l-88 44 l0 -182 l251 0 Z" /><glyph glyph-name="uni4E2D" unicode="&#x4e2d;" d="M764 332 l0 209 l-219 0 l0 -209 l219 0 ZM422 332 l0 209 l-218 0 l0 -209 l218 0 ZM885 654 l0 -484 l-121 0 l0 48 l-219 0 l0 -302 l-123 0 l0 302 l-218 0 l0 -53 l-117 0 l0 489 l335 0 l0 168 l123 0 l0 -168 l340 0 Z" /><glyph glyph-name="uni4E3A" unicode="&#x4e3a;" d="M224 609 q-23 59 -90 148 l101 42 q72 -87 96 -146 l-107 -44 ZM885 597 q-1 -40 -2 -55 q-17 -502 -63 -560 q-34 -45 -96 -54 q-42 -7 -155 -3 q-4 63 -40 122 q59 -5 141 -5 q27 0 42 15 q35 36 48 423 l-281 0 q-53 -360 -337 -546 q-34 49 -92 85 q253 160 308 461 l-284 0 l0 117 l298 0 q3 50 3 93 l0 131 l117 0 l0 -132 q0 -26 -2 -92 l395 0 ZM580 161 q-31 76 -112 184 l97 44 q82 -99 118 -176 l-103 -52 Z" /><glyph glyph-name="uni4E3D" unicode="&#x4e3d;" d="M269 410 q27 -45 70 -130 l0 208 l-138 0 l0 -105 l68 27 ZM453 45 q0 -80 -40 -103 q-37 -22 -135 -22 q-4 57 -30 112 q31 -1 75 -1 q16 0 16 16 l0 159 l-65 -29 q-21 60 -73 162 l0 -422 l-108 0 l0 677 l360 0 l0 -549 ZM690 403 q35 -57 78 -145 l0 230 l-145 0 l0 -112 l67 27 ZM884 45 q0 -79 -42 -104 q-37 -20 -142 -20 q-5 59 -30 110 q17 -1 82 -1 q16 0 16 16 l0 160 l-69 -32 q-19 53 -76 163 l0 -420 l-107 0 l0 677 l368 0 l0 -549 ZM925 774 l0 -111 l-879 0 l0 111 l879 0 Z" /><glyph glyph-name="uni4E86" unicode="&#x4e86;" d="M884 693 q-152 -162 -334 -270 l0 -374 q0 -92 -63 -115 q-58 -21 -210 -19 q-9 53 -47 116 q46 -2 170 -2 q29 0 29 22 l0 431 q110 57 223 159 l-560 0 l0 113 l674 0 l25 7 l93 -68 Z" /><glyph glyph-name="uni4E9A" unicode="&#x4e9a;" d="M425 74 l112 0 l0 580 l-112 0 l0 -580 ZM934 74 l0 -111 l-900 0 l0 111 l265 0 l0 580 l-232 0 l0 115 l841 0 l0 -115 l-245 0 l0 -434 q76 160 117 335 l113 -37 q-61 -200 -127 -337 l-103 36 l0 -143 l271 0 ZM171 553 q93 -224 124 -336 l-112 -47 q-32 131 -114 346 l102 37 Z" /><glyph glyph-name="uni4EA4" unicode="&#x4ea4;" d="M911 587 l-852 0 l0 113 l379 0 q-20 47 -50 96 l111 39 q55 -87 71 -134 l-3 -1 l344 0 l0 -113 ZM669 584 q179 -122 249 -204 l-99 -75 q-70 90 -241 214 l91 65 ZM401 536 q-102 -132 -257 -226 q-49 52 -92 84 q149 76 237 185 l112 -43 ZM729 378 q-57 -134 -153 -228 q141 -93 352 -125 q-40 -40 -70 -104 q-228 44 -373 153 q-143 -102 -370 -157 q-31 57 -70 102 q220 43 355 132 q-86 95 -142 224 l104 32 q45 -108 124 -187 q86 81 127 192 l116 -34 Z" /><glyph glyph-name="uni2F08" unicode="&#x2f08;&#x4eba;" d="M543 821 q-2 -76 -7 -151 q50 -487 412 -647 q-60 -46 -85 -100 q-268 128 -380 460 q-98 -313 -357 -466 q-35 53 -96 95 q253 135 336 422 q38 128 44 387 l133 0 Z" /><glyph glyph-name="uni4ECE" unicode="&#x4ece;" d="M423 161 q-38 79 -111 179 q-51 -273 -171 -419 q-41 39 -115 81 q185 192 203 807 l127 -4 q-6 -170 -23 -319 q123 -132 178 -240 l-88 -85 ZM731 804 q-10 -189 -27 -312 q72 -333 241 -451 q-57 -48 -87 -107 q-126 107 -200 327 q-60 -216 -181 -339 q-39 37 -115 81 q125 109 183 324 q46 178 58 482 l128 -5 Z" /><glyph glyph-name="uni4ED8" unicode="&#x4ed8;" d="M374 781 q-44 -108 -92 -197 l0 -667 l-119 0 l0 487 q-31 -39 -68 -78 q-31 70 -68 121 q151 143 232 370 l115 -36 ZM938 497 l-107 0 l0 -441 q0 -98 -64 -122 q-54 -21 -227 -19 q-12 58 -45 114 q120 -5 183 -2 q33 0 33 29 l0 441 l-370 0 l0 117 l370 0 l0 198 l120 0 l0 -198 l107 0 l0 -117 ZM510 147 q-28 70 -126 233 l103 47 q111 -179 133 -224 l-110 -56 Z" /><glyph glyph-name="uni4EE3" unicode="&#x4ee3;" d="M827 599 q-36 68 -133 163 l87 54 q98 -90 139 -157 l-93 -60 ZM387 779 q-39 -93 -90 -179 l0 -683 l-120 0 l0 510 q-55 -68 -101 -109 q-26 64 -64 118 q172 147 265 379 l110 -36 ZM653 427 q45 -355 157 -369 q30 -3 41 155 q24 -28 95 -66 q-30 -235 -131 -230 q-119 12 -187 142 q-62 120 -89 353 l-191 -27 l-17 112 l196 26 q-11 151 -15 285 l117 0 q3 -154 13 -269 l276 36 l17 -109 l-282 -39 Z" /><glyph glyph-name="uni4EF6" unicode="&#x4ef6;" d="M347 783 q-42 -109 -96 -206 l0 -660 l-109 0 l0 488 q-39 -49 -59 -70 q-22 60 -62 120 q140 143 216 363 l110 -35 ZM935 242 l-249 0 l0 -326 l-116 0 l0 326 l-262 0 l0 112 l262 0 l0 167 l-119 0 q-26 -71 -60 -125 q-38 27 -100 55 q75 109 115 318 l111 -23 q-9 -50 -28 -112 l81 0 l0 176 l116 0 l0 -176 l203 0 l0 -113 l-203 0 l0 -167 l249 0 l0 -112 Z" /><glyph glyph-name="uni4F17" unicode="&#x4f17;" d="M707 452 q-10 -69 -21 -125 q69 -216 233 -292 q-46 -43 -79 -104 q-119 69 -200 233 q-62 -159 -166 -247 q-37 35 -99 73 q179 128 214 475 l118 -13 ZM578 786 q-12 -23 -27 -46 q130 -184 386 -250 q-40 -37 -79 -102 q-221 74 -366 265 q-85 -109 -207 -189 l72 -7 q-8 -76 -23 -143 q113 -93 158 -155 l-78 -84 q-34 51 -110 125 q-55 -179 -163 -278 q-34 32 -99 72 q156 123 194 441 q-69 -37 -113 -55 q-31 60 -81 107 q305 104 421 345 l115 -46 Z" /><glyph glyph-name="uni4F53" unicode="&#x4f53;" d="M326 785 q-32 -93 -77 -187 l0 -681 l-110 0 l0 494 q-31 -42 -59 -76 q-27 68 -64 120 q130 141 201 363 l109 -33 ZM782 182 q-68 111 -120 253 l0 -253 l120 0 ZM550 182 l0 246 q-50 -138 -119 -246 l119 0 ZM719 540 q90 -252 237 -390 q-54 -42 -86 -89 q-35 38 -78 103 l0 -85 l-130 0 l0 -157 l-112 0 l0 157 l-128 0 l0 89 q-46 -70 -86 -110 q-40 56 -83 88 q152 135 242 394 l-191 0 l0 110 l246 0 l0 167 l112 0 l0 -167 l268 0 l0 -110 l-211 0 Z" /><glyph glyph-name="uni4F5C" unicode="&#x4f5c;" d="M357 783 q-38 -100 -93 -201 l0 -665 l-116 0 l0 485 q-41 -49 -61 -70 q-26 69 -64 123 q144 142 222 363 l112 -35 ZM665 554 l0 -102 l252 0 l0 -104 l-252 0 l0 -110 l264 0 l0 -107 l-264 0 l0 -215 l-118 0 l0 638 l-37 0 q-60 -110 -127 -188 q-34 39 -89 81 q134 136 206 366 l112 -29 q-22 -63 -48 -120 l377 0 l0 -110 l-276 0 Z" /><glyph glyph-name="uni4F60" unicode="&#x4f60;" d="M342 784 q-40 -104 -92 -199 l0 -668 l-111 0 l0 497 q-28 -39 -65 -79 q-24 65 -62 120 q142 143 220 363 l110 -34 ZM524 367 q-45 -199 -132 -324 q-35 29 -99 62 q80 98 119 285 l112 -23 ZM685 542 l0 -497 q0 -82 -44 -107 q-43 -23 -143 -23 q-9 61 -40 116 q41 -1 95 -1 q18 0 18 17 l0 495 l-113 0 q-41 -85 -91 -149 q-41 41 -93 76 q109 121 165 349 l112 -25 q-17 -67 -45 -144 l334 0 l18 3 l82 -15 q-21 -135 -42 -225 l-98 16 q9 55 16 114 l-131 0 ZM823 400 q82 -162 106 -317 l-111 -37 q-18 148 -98 319 l103 35 Z" /><glyph glyph-name="uni4FE1" unicode="&#x4fe1;" d="M332 787 q-35 -98 -72 -171 l0 -704 l-105 0 l0 522 q-38 -54 -71 -92 q-21 58 -59 113 q132 143 204 363 l103 -31 ZM456 149 l0 -110 l314 0 l0 110 l-314 0 ZM358 241 l514 0 l0 -322 l-102 0 l0 28 l-314 0 l0 -30 l-98 0 l0 324 ZM373 385 l486 0 l0 -90 l-486 0 l0 90 ZM859 436 l-486 0 l0 90 l486 0 l0 -90 ZM929 672 l0 -94 l-624 0 l0 94 l278 0 q-21 50 -61 115 l98 37 q49 -72 71 -128 l-55 -24 l293 0 Z" /><glyph glyph-name="uni4FEF" unicode="&#x4fef;" d="M303 790 q-32 -105 -76 -201 l0 -672 l-107 0 l0 475 q-24 -37 -48 -65 q-23 71 -55 120 q119 144 184 373 l102 -30 ZM858 494 l70 0 l0 -96 l-70 0 l0 -365 q0 -72 -38 -91 q-34 -20 -132 -20 q-6 50 -28 97 q19 -1 85 -1 q16 1 16 16 l0 364 l-176 0 l0 96 l176 0 l0 115 l97 0 l0 -115 ZM671 116 q-25 72 -92 201 l74 36 q63 -103 97 -193 l-79 -44 ZM937 735 l0 -100 l-540 0 l0 -294 q75 103 109 283 l93 -22 q-16 -65 -45 -140 l0 -539 l-95 0 l0 358 q-16 -23 -30 -38 q-9 37 -33 84 q-6 -278 -71 -410 q-34 32 -88 57 q57 121 57 412 l0 349 l275 0 q-14 37 -27 71 l103 25 q28 -63 39 -96 l253 0 Z" /><glyph glyph-name="uni50CF" unicode="&#x50cf;" d="M449 475 l99 0 q17 28 26 60 l-125 0 l0 -60 ZM482 669 q-21 -25 -43 -52 l145 0 q21 23 41 52 l-143 0 ZM776 535 l-109 0 q-6 -36 -15 -60 l124 0 l0 60 ZM905 299 q-34 -20 -92 -49 q46 -137 137 -193 q-44 -40 -70 -86 q-101 74 -150 241 l-33 -14 q20 -73 11 -142 q-8 -67 -37 -98 q-34 -41 -96 -42 q-30 -2 -58 1 q-4 62 -26 98 q32 -4 60 -4 q28 0 40 20 q18 20 18 75 q-127 -100 -271 -150 q-30 48 -65 80 q200 56 320 165 q-7 19 -12 33 q-104 -83 -234 -131 q-28 43 -61 71 q158 43 256 122 q-10 14 -21 23 q-74 -51 -184 -82 q-34 44 -62 68 q117 35 192 87 l-119 0 l0 137 l-28 -22 q-35 50 -72 75 l-1 -3 l0 -662 l-111 0 l0 486 q-33 -44 -55 -67 q-25 65 -63 119 q137 145 210 363 l109 -34 q-31 -90 -88 -201 q136 96 209 238 l108 -20 l-27 -48 l149 0 l22 6 l65 -48 q-34 -53 -70 -94 l178 0 l0 -225 l-280 0 q-10 -11 -16 -17 q53 -46 81 -103 q97 52 161 98 l76 -71 Z" /><glyph glyph-name="uni5168" unicode="&#x5168;" d="M722 473 q-130 85 -238 202 q-105 -117 -235 -202 l473 0 ZM546 371 l0 -112 l231 0 l0 -101 l-231 0 l0 -116 l355 0 l0 -104 l-825 0 l0 104 l348 0 l0 116 l-221 0 l0 101 l221 0 l0 112 l-235 0 l0 65 q-44 -26 -93 -50 q-22 44 -79 97 q304 125 448 348 l103 -48 l-18 -26 q159 -169 405 -276 q-57 -52 -77 -99 l-94 51 l0 -62 l-238 0 Z" /><glyph glyph-name="uni516C" unicode="&#x516c;" d="M670 808 q91 -190 271 -347 q-50 -36 -97 -99 q-172 176 -289 399 l115 47 ZM416 765 q-99 -247 -268 -403 q-58 51 -109 83 q164 126 250 356 l127 -36 ZM687 313 q148 -196 220 -335 l-116 -62 q-18 40 -60 110 q-542 -45 -583 -61 q-16 60 -45 121 q36 10 91 77 q121 123 230 372 l129 -55 q-103 -195 -251 -369 l362 24 q-52 79 -86 127 l109 51 Z" /><glyph glyph-name="uni5173" unicode="&#x5173;" d="M585 265 q115 -177 363 -230 q-45 -42 -82 -114 q-231 64 -356 255 q-97 -169 -393 -259 q-36 60 -86 103 q306 89 371 245 l-342 0 l0 115 l365 0 l0 132 l-301 0 l0 114 l161 0 q-29 71 -86 145 l97 48 q69 -78 102 -160 l-59 -33 l234 0 q54 88 97 195 l126 -41 q-44 -77 -95 -154 l161 0 l0 -114 l-301 0 l0 -132 l352 0 l0 -115 l-328 0 Z" /><glyph glyph-name="uni518D" unicode="&#x518d;" d="M714 244 l0 78 l-174 0 l0 -78 l174 0 ZM256 244 l168 0 l0 78 l-168 0 l0 -78 ZM256 496 l0 -76 l168 0 l0 76 l-168 0 ZM540 496 l0 -76 l174 0 l0 76 l-174 0 ZM940 137 l-111 0 l0 -96 q0 -84 -53 -107 q-41 -19 -179 -19 q-11 57 -40 108 q36 -2 133 -2 q24 0 24 22 l0 94 l-458 0 l0 -222 l-114 0 l0 222 l-111 0 l0 107 l111 0 l0 356 l282 0 l0 64 l-353 0 l0 106 l830 0 l0 -106 l-361 0 l0 -64 l289 0 l0 -356 l111 0 l0 -107 Z" /><glyph glyph-name="uni519B" unicode="&#x519b;" d="M309 573 q25 68 38 114 l118 -36 q-18 -48 -32 -78 l354 0 l0 115 l-608 0 l0 -115 l130 0 ZM386 475 q-25 -48 -69 -121 l146 0 l0 85 l117 0 l0 -85 l243 0 l-1 -101 l-242 0 l0 -94 l320 0 l0 -105 l-320 0 l0 -138 l-117 0 l0 138 l-387 0 l0 105 l387 0 l0 94 l-148 0 q-88 0 -104 -14 q-15 56 -38 108 q26 6 57 60 q11 16 36 68 l-90 0 l0 89 l-109 0 l0 224 l838 0 l0 -224 l-112 0 l0 -89 l-407 0 Z" /><glyph glyph-name="uni51B3" unicode="&#x51b3;" d="M187 515 q-35 71 -148 214 l91 55 q116 -132 157 -206 l-100 -63 ZM280 280 q-77 -180 -154 -321 l-101 70 q84 132 166 321 l89 -70 ZM644 485 q0 -52 -4 -96 l108 0 l0 181 l-104 0 l0 -85 ZM698 279 q76 -196 254 -259 q-42 -37 -76 -102 q-186 78 -272 303 q-70 -198 -276 -307 q-33 52 -84 93 q204 91 255 272 l-195 0 l0 110 l215 0 q3 50 3 97 l0 84 l-174 0 l0 109 l174 0 l0 144 l122 0 l0 -144 l214 0 l0 -290 l81 0 l0 -110 l-241 0 Z" /><glyph glyph-name="uni522B" unicode="&#x522b;" d="M372 679 l-188 0 l0 -133 l188 0 l0 133 ZM483 443 l-403 0 l0 338 l403 0 l0 -338 ZM508 362 l-2 -45 q-12 -309 -44 -348 q-24 -31 -68 -39 q-34 -6 -108 -4 q-3 62 -31 110 q34 -4 81 -4 q18 0 29 12 q18 24 26 214 l-94 0 q-32 -252 -206 -346 q-25 51 -68 86 q139 75 166 260 l-136 0 l0 104 l145 0 l3 61 l109 0 l-3 -61 l201 0 ZM693 158 l-111 0 l0 547 l111 0 l0 -547 ZM898 803 l0 -750 q0 -89 -49 -115 q-46 -23 -179 -23 q-9 59 -37 119 q55 -2 127 -2 q23 0 23 22 l0 749 l115 0 Z" /><glyph glyph-name="uni52A1" unicode="&#x52a1;" d="M861 284 q-3 -31 -6 -46 q-30 -229 -81 -274 q-35 -33 -103 -36 q-64 -4 -162 1 q-4 54 -36 99 q74 -7 162 -7 q33 0 47 11 q32 25 52 154 l-259 0 q-92 -196 -357 -269 q-24 51 -67 96 q218 44 297 173 l-232 0 l0 98 l274 0 q12 53 16 83 l119 -10 q-8 -44 -16 -73 l352 0 ZM325 628 q59 -60 160 -100 q123 45 199 106 l-352 0 l-7 -6 ZM873 688 q-83 -120 -242 -202 q132 -29 310 -36 q-32 -35 -64 -101 q-235 16 -391 74 q-171 -59 -398 -86 q-15 56 -44 101 q168 13 308 50 q-52 31 -102 81 q-59 -42 -109 -67 q-28 55 -67 89 q189 86 276 232 l118 -24 q-25 -41 -48 -69 l363 0 l17 5 l73 -47 Z" /><glyph glyph-name="uni52E4" unicode="&#x52e4;" d="M156 400 l90 0 l0 51 l-90 0 l0 -51 ZM415 451 l-82 0 l0 -51 l82 0 l0 51 ZM216 635 l142 0 l0 43 l-142 0 l0 -43 ZM917 618 l-1 -50 q-12 -533 -48 -584 q-25 -38 -74 -47 q-33 -6 -116 -4 q-4 56 -32 106 q39 -3 95 -3 q22 0 33 16 q26 34 35 463 l-84 0 q-16 -435 -160 -605 q-26 44 -77 76 q-217 -23 -435 -42 l-8 98 q68 3 194 10 l0 41 l-157 0 l0 81 l157 0 l0 33 l-177 0 l0 80 l177 0 l0 35 l-171 0 l0 206 l171 0 l0 33 l-124 0 l0 117 l-78 0 l0 85 l78 0 l0 58 l101 0 l0 -58 l142 0 l0 58 l106 0 l0 -58 l71 0 l0 -85 l-71 0 l0 -117 l-123 0 l0 -33 l167 0 l0 -206 l-167 0 l0 -35 l171 0 l0 -80 l-171 0 l0 -33 l151 0 l0 -81 l-151 0 l0 -35 q57 3 163 11 l0 -57 q108 144 119 503 l-83 0 l0 103 l85 0 q1 65 1 203 l104 0 q0 -72 -2 -203 l189 0 Z" /><glyph glyph-name="uni5316" unicode="&#x5316;" d="M770 48 q30 0 41 39 q9 35 15 160 q51 -41 114 -56 q-10 -146 -41 -200 q-33 -59 -117 -59 l-142 0 q-90 0 -122 39 q-32 39 -32 144 l0 100 q-54 -34 -110 -61 q-28 40 -76 80 l0 -318 l-122 0 l0 509 q-34 -41 -73 -79 q-36 69 -74 117 q162 145 246 363 l117 -39 q-39 -92 -94 -186 l0 -354 q105 50 186 110 l0 451 l126 0 l0 -351 q124 113 206 239 l111 -76 q-127 -175 -317 -321 l0 -186 q0 -43 7 -54 q8 -11 37 -11 l114 0 Z" /><glyph glyph-name="uni5320" unicode="&#x5320;" d="M912 50 l0 -110 l-836 0 l0 851 l828 0 l0 -110 l-706 0 l0 -631 l714 0 ZM609 71 l0 264 l-197 0 q-15 -185 -96 -276 q-47 43 -99 66 q84 92 84 295 l0 188 q305 12 468 45 l61 -96 q-173 -32 -415 -40 l0 -81 l465 0 l0 -101 l-159 0 l0 -264 l-112 0 Z" /><glyph glyph-name="uni533A" unicode="&#x533a;" d="M927 53 l0 -110 l-844 0 l0 837 l819 0 l0 -111 l-707 0 l0 -616 l732 0 ZM746 98 q-58 67 -193 190 q-119 -113 -248 -192 q-45 54 -88 89 q127 65 251 178 q-115 99 -212 175 l81 71 q171 -134 211 -167 q86 92 148 197 l110 -44 q-72 -117 -172 -225 q133 -111 202 -187 l-90 -85 Z" /><glyph glyph-name="uni539F" unicode="&#x539f;" d="M224 499 q0 -381 -99 -562 q-43 36 -102 57 q88 157 88 505 l0 281 l809 0 l0 -105 l-696 0 l0 -176 ZM457 162 q-78 -124 -165 -211 q-51 39 -97 63 q90 77 153 183 l109 -35 ZM401 313 l334 0 l0 63 l-334 0 l0 -63 ZM401 456 l334 0 l0 62 l-334 0 l0 -62 ZM626 226 l0 -197 q0 -77 -46 -96 q-36 -16 -156 -16 q-6 45 -32 101 q43 -1 103 -1 q19 0 19 15 l0 194 l-226 0 l0 379 l172 0 q20 38 30 69 l139 -17 l-35 -52 l260 0 l0 -379 l-228 0 ZM764 198 q136 -154 165 -194 l-99 -56 q-32 49 -158 202 l92 48 Z" /><glyph glyph-name="uni53D6" unicode="&#x53d6;" d="M319 183 l0 97 l-108 0 l0 -112 l108 15 ZM211 681 l0 -99 l108 0 l0 99 l-108 0 ZM211 378 l108 0 l0 105 l-108 0 l0 -105 ZM432 100 l0 -183 l-113 0 l0 163 q-178 -31 -261 -44 l-22 109 q13 1 64 7 l0 529 l-53 0 l0 102 l441 0 l0 -102 l-56 0 l0 -481 l75 11 l6 -96 l-81 -15 ZM630 613 q31 -176 83 -301 q57 134 83 301 l-166 0 ZM917 707 q-32 -315 -140 -522 q71 -112 172 -174 q-43 -33 -79 -90 q-90 64 -158 162 q-71 -98 -176 -169 q-30 51 -72 86 q105 64 186 190 q-76 160 -121 423 l-34 0 l0 108 l330 0 l20 4 l72 -18 Z" /><glyph glyph-name="uni53D8" unicode="&#x53d8;" d="M310 627 l-243 0 l0 102 l374 0 q-15 33 -39 78 l112 26 q36 -59 56 -104 l335 0 l0 -102 l-248 0 l0 -76 l82 52 q103 -76 166 -158 l-88 -63 q-58 81 -160 166 l0 -189 l-116 0 l0 268 l-114 0 l0 -268 l-117 0 l0 268 ZM288 577 q-46 -112 -137 -195 q-47 36 -89 60 q85 68 122 162 l104 -27 ZM328 237 q60 -64 158 -113 q102 51 161 113 l-319 0 ZM822 291 q-72 -128 -214 -215 q142 -46 325 -62 q-31 -31 -65 -101 q-225 26 -385 99 q-162 -67 -388 -99 q-20 61 -54 102 q181 18 324 63 q-97 64 -170 159 l-73 0 l0 101 l608 0 l19 4 l73 -51 Z" /><glyph glyph-name="uni53F7" unicode="&#x53f7;" d="M680 688 l-396 0 l0 -91 l396 0 l0 91 ZM802 497 l-633 0 l0 292 l633 0 l0 -292 ZM366 332 q-16 -49 -24 -73 l465 0 q-3 -33 -6 -48 q-27 -207 -77 -254 q-35 -32 -106 -37 q-80 -3 -168 1 q-4 60 -39 110 q74 -7 166 -7 q32 0 46 9 q27 22 45 121 l-424 0 l0 1 l-71 0 q37 91 62 177 l-182 0 l0 104 l861 0 l0 -104 l-548 0 Z" /><glyph glyph-name="uni5408" unicode="&#x5408;" d="M300 219 l0 -153 l384 0 l0 153 l-384 0 ZM182 321 l626 0 l0 -401 l-124 0 l0 39 l-384 0 l0 -42 l-118 0 l0 404 ZM663 511 q-91 62 -169 139 q-71 -74 -160 -139 l329 0 ZM597 774 q-21 -29 -32 -43 q158 -147 385 -229 q-56 -51 -80 -106 q-89 43 -140 72 l0 -63 l-485 0 l0 47 q-69 -42 -130 -70 q-33 59 -85 105 q321 128 464 340 l103 -53 Z" /><glyph glyph-name="uni540D" unicode="&#x540d;" d="M713 62 l0 184 l-364 0 l0 -184 l364 0 ZM832 -84 l-119 0 l0 42 l-364 0 l0 -42 l-116 0 l0 301 q-59 -21 -144 -41 q-20 59 -59 107 q173 33 320 105 q-59 53 -119 99 l89 66 q85 -59 138 -106 q123 76 198 175 l-310 0 q-99 -84 -218 -144 q-36 58 -79 92 q219 95 324 257 l129 -27 q-35 -49 -54 -73 l283 0 l19 6 l80 -48 q-95 -198 -312 -335 l314 0 l0 -434 Z" /><glyph glyph-name="uni540E" unicode="&#x540e;" d="M425 232 l0 -165 l325 0 l0 165 l-325 0 ZM308 339 l564 0 l0 -421 l-122 0 l0 41 l-325 0 l0 -43 l-117 0 l0 423 ZM937 556 l0 -110 l-680 0 q-7 -364 -138 -533 q-44 51 -96 79 q114 148 114 483 l0 266 q419 21 646 77 l94 -94 q-239 -58 -620 -80 l0 -88 l680 0 Z" /><glyph glyph-name="uni5458" unicode="&#x5458;" d="M296 611 l381 0 l0 74 l-381 0 l0 -74 ZM806 783 l0 -270 l-631 0 l0 270 l631 0 ZM543 299 l0 -86 q0 -213 -409 -306 q-31 53 -80 94 q222 40 306 106 q57 43 57 109 l0 83 l126 0 ZM577 129 q206 -60 344 -122 l-59 -98 q-137 69 -342 135 l57 85 ZM850 450 l0 -342 l-127 0 l0 237 l-469 0 l0 -250 l-120 0 l0 355 l716 0 Z" /><glyph glyph-name="uni552E" unicode="&#x552e;" d="M272 134 l0 -91 l442 0 l0 91 l-442 0 ZM156 224 l678 0 l0 -311 l-120 0 l0 38 l-442 0 l0 -38 l-116 0 l0 311 ZM274 361 l203 0 l0 48 l-203 0 l0 -48 ZM477 644 l-203 0 l0 -44 l203 0 l0 44 ZM477 526 l-203 0 l0 -43 l203 0 l0 43 ZM889 361 l0 -84 l-615 0 l0 -33 l-114 0 l0 265 q-27 -30 -60 -61 q-37 53 -79 91 q139 109 218 287 l108 -35 l-34 -67 l160 0 q-9 24 -30 69 l107 31 q33 -63 47 -100 l268 0 l0 -80 l-275 0 l0 -44 l227 0 l0 -74 l-227 0 l0 -43 l227 0 l0 -74 l-227 0 l0 -48 l299 0 Z" /><glyph glyph-name="uni5546" unicode="&#x5546;" d="M556 515 q35 66 52 117 l-239 0 q35 -61 48 -93 l-68 -24 l207 0 ZM767 421 l-156 0 q118 -85 156 -115 l0 115 ZM650 272 q-23 19 -63 50 l-61 47 l52 52 l-191 0 l77 -38 q-45 -47 -128 -111 l314 0 ZM579 192 l-189 0 l0 -77 l189 0 l0 77 ZM918 632 l-285 0 l100 -20 q-27 -48 -60 -97 l201 0 l0 -492 q0 -69 -49 -87 q-38 -15 -165 -15 q-9 44 -32 85 q82 -3 118 -1 q21 0 21 19 l0 259 l-57 -62 q-26 24 -39 34 l0 -220 l-281 0 l0 -40 l-96 0 l0 247 q-16 -12 -37 -24 q-17 54 -42 95 q111 56 169 108 l-172 0 l0 -503 l-111 0 l0 597 l199 0 q-11 27 -45 97 l65 20 l-265 0 l0 97 l387 0 q-10 28 -29 70 l116 28 q22 -44 45 -98 l344 0 l0 -97 Z" /><glyph glyph-name="uni56E2" unicode="&#x56e2;" d="M738 444 l-117 0 l0 -247 q0 -75 -41 -96 q-36 -19 -135 -19 q-8 45 -37 102 q58 -2 86 -1 q17 0 17 15 l0 131 q-105 -105 -231 -172 q-30 44 -72 78 q151 81 258 209 l-233 0 l0 102 l278 0 l0 104 l110 0 l0 -104 l117 0 l0 -102 ZM773 52 l0 628 l-582 0 l0 -628 l582 0 ZM898 785 l0 -870 l-125 0 l0 34 l-582 0 l0 -34 l-119 0 l0 870 l826 0 Z" /><glyph glyph-name="uni56ED" unicode="&#x56ed;" d="M708 519 l-445 0 l0 91 l445 0 l0 -91 ZM656 189 q12 0 15 16 q5 16 6 73 q32 -26 87 -37 q-7 -83 -29 -113 q-20 -29 -67 -29 l-66 0 q-59 0 -80 25 q-18 25 -18 93 l0 140 l-65 0 q-10 -111 -47 -173 q-43 -70 -142 -108 q-19 50 -61 84 q78 27 111 75 q28 42 36 122 l-122 0 l0 94 l537 0 l0 -94 l-147 0 l0 -140 q0 -18 3 -23 q2 -5 12 -5 l37 0 ZM781 64 l0 609 l-594 0 l0 -609 l594 0 ZM901 781 l0 -864 l-120 0 l0 39 l-594 0 l0 -39 l-114 0 l0 864 l828 0 Z" /><glyph glyph-name="uni56FD" unicode="&#x56fd;" d="M534 221 l97 0 q-21 34 -66 85 l59 30 l-90 0 l0 -115 ZM735 221 l0 -94 l-503 0 l0 94 l195 0 l0 115 l-160 0 l0 97 l160 0 l0 91 l-184 0 l0 101 l476 0 l0 -101 l-185 0 l0 -91 l164 0 l0 -97 l-53 0 q49 -52 72 -86 l-50 -29 l68 0 ZM769 71 l0 608 l-575 0 l0 -608 l575 0 ZM892 784 l0 -868 l-123 0 l0 48 l-575 0 l0 -48 l-117 0 l0 868 l815 0 Z" /><glyph glyph-name="uni56FE" unicode="&#x56fe;" d="M784 51 l0 296 q-32 -37 -51 -74 q-128 26 -242 85 q-25 -13 -77 -37 q131 -28 222 -69 l-47 -70 q-110 50 -241 78 l35 50 q-75 -29 -159 -50 q-13 39 -41 79 l0 -288 l459 0 q-166 61 -383 85 l53 75 q220 -24 394 -83 l-48 -77 l126 0 ZM183 682 l0 -326 q111 22 208 61 q-41 31 -69 56 q-26 -23 -59 -44 q-39 42 -76 68 q133 76 205 185 l-209 0 ZM396 522 q42 -37 90 -61 q48 22 97 61 l-187 0 ZM784 682 l-377 0 l82 -30 q-18 -27 -32 -44 l212 0 l16 4 l65 -39 q-53 -84 -162 -158 q86 -33 196 -54 l0 321 ZM901 785 l0 -870 l-117 0 l0 35 l-601 0 l0 -35 l-111 0 l0 870 l829 0 Z" /><glyph glyph-name="uni5730" unicode="&#x5730;" d="M256 260 l90 38 l26 -102 q-94 -47 -303 -145 l-47 117 q50 18 127 49 l0 272 l-114 0 l0 110 l114 0 l0 211 l107 0 l0 -211 l98 0 l0 -110 l-98 0 l0 -229 ZM775 37 q39 0 52 23 q13 23 20 98 q43 -31 101 -41 q-12 -104 -45 -142 q-35 -41 -119 -41 l-206 0 q-99 0 -134 35 q-35 35 -35 135 l0 249 l-53 -22 l-42 103 l95 40 l0 255 l110 0 l0 -208 l81 34 l0 268 l108 0 l0 -221 l76 33 l41 27 l81 -28 l-4 -19 q0 -286 -7 -341 q-4 -61 -49 -81 q-30 -13 -101 -13 q-6 62 -25 97 q17 -2 47 -2 q16 0 21 21 q3 23 3 224 l-83 -37 l0 -342 l-108 0 l0 296 l-81 -35 l0 -299 q0 -43 12 -54 q12 -12 56 -12 l188 0 Z" /><glyph glyph-name="uni573A" unicode="&#x573a;" d="M929 519 q-1 -36 -3 -50 q-26 -442 -73 -499 q-30 -39 -78 -45 q-40 -7 -115 -4 q-2 58 -31 108 q47 -5 88 -5 q23 0 35 17 q36 37 56 370 l-34 0 q-91 -329 -306 -488 q-40 35 -87 62 q206 130 288 426 l-55 0 q-63 -184 -198 -285 q-18 17 -52 40 l3 -16 q-171 -69 -302 -120 l-38 118 q33 9 120 38 l0 297 l-105 0 l0 109 l105 0 l0 218 l107 0 l0 -218 l96 0 l0 -109 l-96 0 l0 -260 l91 32 l10 -52 q103 80 150 208 l-10 0 q-73 0 -86 -15 q-19 53 -47 108 q31 6 101 49 q84 55 157 117 l-256 0 l0 109 l380 0 l25 9 l82 -65 q-125 -115 -258 -204 l336 0 Z" /><glyph glyph-name="uni5757" unicode="&#x5757;" d="M370 210 q-151 -74 -296 -142 l-47 116 q22 7 122 46 l0 259 l-104 0 l0 110 l104 0 l0 211 l107 0 l0 -211 l94 0 l0 -110 l-94 0 l0 -214 l87 37 l27 -102 ZM644 469 q0 -27 -2 -82 l109 0 l0 174 l-107 0 l0 -92 ZM703 279 q75 -195 236 -262 q-41 -37 -81 -103 q-163 85 -242 309 q-59 -206 -275 -309 q-29 49 -79 87 q204 93 250 278 l-146 0 l0 108 l163 0 q3 43 3 83 l0 91 l-142 0 l0 108 l142 0 l0 144 l112 0 l0 -144 l215 0 l0 -282 l61 0 l0 -108 l-217 0 Z" /><glyph glyph-name="uni57CE" unicode="&#x57ce;" d="M448 385 l0 -19 q0 -113 -15 -199 q24 -3 53 -3 q16 0 25 12 q10 18 13 209 l-76 0 ZM926 468 q-49 -201 -133 -333 q24 -101 52 -101 q21 0 25 145 q38 -43 80 -61 q-10 -110 -36 -151 q-26 -40 -83 -40 q-67 0 -113 108 q-58 -68 -135 -120 q-39 47 -81 76 q106 63 181 164 q-34 160 -46 428 l-189 0 l0 -104 l172 0 q0 -27 -1 -39 q-3 -299 -26 -329 q-20 -28 -53 -34 q-27 -6 -84 -4 q-6 58 -24 91 q-27 -164 -109 -251 q-32 39 -83 70 q55 63 77 152 l-250 -103 l-37 116 q24 6 101 32 l0 305 l-84 0 l0 107 l84 0 l0 218 l107 0 l0 -218 l76 0 l0 -107 l-76 0 l0 -268 l75 27 l13 -71 q16 75 16 193 l0 322 l292 0 q-2 92 -2 135 l109 0 q-1 -68 0 -135 l76 0 q-32 48 -74 93 l78 46 q67 -63 95 -113 l-41 -26 l53 0 l0 -105 l-185 0 q7 -170 22 -280 q34 79 57 184 l104 -19 Z" /><glyph glyph-name="uni57DF" unicode="&#x57df;" d="M331 179 q-138 -82 -259 -147 l-44 117 l96 43 l0 291 l-87 0 l0 109 l87 0 l0 218 l108 0 l0 -218 l73 0 l0 -110 l-73 0 l0 -234 l66 33 l33 -102 ZM915 501 q-46 -194 -130 -338 q27 -139 63 -139 q20 0 24 123 q31 -40 78 -64 q-13 -97 -38 -132 q-25 -34 -80 -34 q-77 0 -125 133 q-59 -73 -136 -128 q-29 37 -83 73 q65 41 125 103 q-261 -69 -296 -78 l-27 108 q62 12 334 72 l9 -77 q23 28 41 54 q-31 162 -41 407 l-314 0 l0 105 l310 0 q-2 90 -2 133 l110 0 q-1 -66 0 -133 l103 0 q-40 41 -85 77 l65 56 q75 -53 107 -94 l-42 -39 l43 0 l0 -105 l-188 0 q6 -141 18 -244 q29 74 54 181 l103 -20 ZM507 431 l-75 0 l0 -118 l75 0 l0 118 ZM597 519 l0 -295 l-249 0 l0 295 l249 0 Z" /><glyph glyph-name="uni5802" unicode="&#x5802;" d="M322 366 l322 0 l0 73 l-322 0 l0 -73 ZM542 40 l374 0 l0 -100 l-858 0 l0 100 l367 0 l0 77 l-278 0 l0 99 l278 0 l0 63 l-210 0 l0 248 l543 0 l0 -248 l-216 0 l0 -63 l298 0 l0 -99 l-298 0 l0 -77 ZM917 679 l0 -231 l-110 0 l0 132 l-644 0 l0 -132 l-106 0 l0 231 l146 0 q-23 45 -61 97 l103 40 q53 -65 79 -121 l-37 -16 l138 0 l0 144 l117 0 l0 -144 l148 0 l-46 15 q43 56 75 125 l125 -36 q-48 -62 -86 -104 l159 0 Z" /><glyph glyph-name="uni589E" unicode="&#x589e;" d="M323 249 l22 -103 l-278 -114 l-37 116 q36 10 105 34 l0 303 l-88 0 l0 107 l88 0 l0 218 l107 0 l0 -218 l85 0 l0 -107 l-85 0 l0 -266 l81 30 ZM510 222 l0 -52 l237 0 l0 52 l-237 0 ZM747 46 l0 44 l-237 0 l0 -44 l237 0 ZM405 306 l450 0 l0 -390 l-108 0 l0 46 l-237 0 l0 -46 l-105 0 l0 390 ZM518 592 q47 -74 58 -134 l-62 -23 q-12 62 -56 136 l60 21 ZM671 456 q35 63 57 134 l71 -24 l-75 -130 l-53 20 ZM666 608 l0 -186 l133 0 l0 186 l-133 0 ZM450 422 l133 0 l0 186 l-133 0 l0 -186 ZM896 683 l0 -336 l-537 0 l0 336 l116 0 q-25 52 -60 101 l99 40 q43 -55 69 -110 l-66 -31 l151 0 q49 80 71 142 l121 -37 q-42 -60 -76 -105 l112 0 Z" /><glyph glyph-name="uni5907" unicode="&#x5907;" d="M332 641 q54 -47 149 -88 q81 40 139 92 l-284 0 l-4 -4 ZM266 246 l0 -53 l156 0 l0 53 l-156 0 ZM687 246 l-145 0 l0 -53 l145 0 l0 53 ZM687 41 l0 63 l-145 0 l0 -63 l145 0 ZM422 41 l0 63 l-156 0 l0 -63 l156 0 ZM810 705 q-69 -114 -197 -198 q154 -44 342 -60 q-42 -47 -71 -108 q-224 27 -401 99 q-133 -59 -315 -94 l647 0 l0 -428 l-128 0 l0 27 l-421 0 l0 -28 l-120 0 l0 425 l-77 -13 q-18 63 -51 108 q183 19 333 67 q-65 42 -104 75 q-53 -36 -111 -65 q-34 55 -77 85 q200 86 291 229 l125 -25 q-33 -45 -43 -56 l283 0 l19 5 l76 -45 Z" /><glyph glyph-name="uni590D" unicode="&#x590d;" d="M347 176 q50 -41 140 -77 q94 34 151 77 l-291 0 ZM310 376 l397 0 l0 41 l-397 0 l0 -41 ZM310 487 l397 0 l0 40 l-397 0 l0 -40 ZM820 219 q-68 -97 -187 -160 q138 -29 311 -35 q-34 -37 -62 -99 q-228 16 -386 74 q-178 -61 -428 -83 q-14 59 -42 101 q188 10 338 45 q-59 37 -100 80 q-50 -37 -104 -68 q-35 42 -79 73 q134 60 216 153 l-104 0 l0 277 q-43 -43 -80 -70 q-31 44 -73 85 q137 92 200 230 l105 -32 l-28 -51 l576 0 l0 -93 l-641 0 q-8 -14 -34 -43 l610 0 l0 -303 l-424 0 l16 -6 q-8 -11 -28 -35 l339 0 l19 5 l70 -45 Z" /><glyph glyph-name="uni591A" unicode="&#x591a;" d="M797 703 q-168 -300 -680 -396 q-25 66 -54 102 q158 23 287 74 q-31 28 -79 64 l86 53 q46 -29 97 -72 q99 54 160 114 l-242 0 q-89 -62 -206 -116 q-37 56 -79 83 q223 82 337 216 l125 -29 q-25 -26 -53 -52 l205 0 l20 5 l76 -46 ZM925 346 q-172 -370 -825 -432 q-18 67 -47 111 q261 18 426 78 q-33 30 -84 68 l95 55 q61 -43 97 -75 q100 54 162 132 l-221 0 q-120 -85 -280 -144 q-28 52 -71 89 q278 87 407 252 l126 -30 q-39 -44 -60 -65 l174 0 l22 6 l79 -45 Z" /><glyph glyph-name="uni2F24" unicode="&#x2f24;&#x5927;" d="M575 443 q105 -311 363 -416 q-47 -39 -86 -109 q-243 115 -364 412 q-91 -281 -363 -413 q-36 63 -86 99 q284 126 352 427 l-334 0 l0 119 l354 0 q7 70 9 259 l127 0 q-2 -170 -12 -259 l382 0 l0 -119 l-342 0 Z" /><glyph glyph-name="uni593A" unicode="&#x593a;" d="M664 584 q106 -72 279 -101 q-43 -41 -76 -102 q-78 18 -148 51 l0 -69 l181 0 l0 -110 l-181 0 l0 -203 q0 -88 -60 -111 q-52 -21 -202 -19 q-5 44 -39 116 q61 -3 155 -3 q26 1 26 20 l0 200 l-304 0 q96 -94 132 -169 l-99 -65 q-37 83 -139 191 l70 43 l-189 0 l0 110 l529 0 l0 70 l118 0 q-122 59 -196 151 l-73 0 q-114 -143 -351 -209 q-24 45 -73 97 q171 34 267 112 l-239 0 l0 110 l332 0 q33 56 48 128 l120 -17 q-12 -54 -38 -111 l404 0 l0 -110 l-254 0 Z" /><glyph glyph-name="uni597D" unicode="&#x597d;" d="M214 524 q-18 -92 -44 -188 q13 -10 40 -31 q26 -21 39 -31 q45 108 65 250 l-100 0 ZM433 617 q-21 -256 -95 -418 q70 -62 107 -111 l-76 -99 q-30 44 -89 103 q-75 -108 -191 -175 q-34 58 -72 91 q107 53 179 163 q-89 78 -151 123 q31 97 58 230 l-69 0 l0 106 l89 0 q17 96 27 190 l114 -8 q-13 -90 -29 -182 l108 0 l19 3 l71 -16 ZM939 314 l-194 0 l0 -273 q0 -83 -54 -107 q-47 -20 -170 -18 q-9 55 -39 109 q49 -1 121 -1 q21 0 21 19 l0 271 l-205 0 l0 109 l205 0 l0 93 q59 51 119 142 l-285 0 l0 105 l360 0 l28 6 l77 -56 q-80 -126 -178 -217 l0 -73 l194 0 l0 -109 Z" /><glyph glyph-name="uni5A92" unicode="&#x5a92;" d="M212 525 q-21 -125 -45 -235 q16 -12 47 -40 q37 111 51 275 l-53 0 ZM300 1 q-21 32 -53 67 q-62 -95 -155 -152 q-36 62 -66 90 q87 45 143 143 q-52 52 -116 103 q30 108 59 273 l-64 0 l0 104 l80 0 q16 119 20 189 l101 -4 q-5 -59 -21 -185 l62 0 l19 2 l66 -8 q-12 -283 -76 -450 q53 -53 80 -90 l-79 -82 ZM561 438 l173 0 l0 52 l-173 0 l0 -52 ZM561 625 l0 -50 l173 0 l0 50 l-173 0 ZM756 189 q84 -101 194 -158 q-46 -39 -80 -90 q-83 56 -158 158 l0 -183 l-113 0 l0 185 q-80 -110 -177 -166 q-32 50 -77 89 q120 55 199 165 l-166 0 l0 97 l221 0 l0 60 l-143 0 l0 279 l-68 0 l0 97 l68 0 l0 100 l105 0 l0 -100 l173 0 l0 100 l110 0 l0 -100 l74 0 l0 -97 l-74 0 l0 -279 l-132 0 l0 -60 l209 0 l0 -97 l-165 0 Z" /><glyph glyph-name="uni5B57" unicode="&#x5b57;" d="M182 508 l-114 0 l0 222 l363 0 q-22 44 -38 64 l116 35 q39 -48 59 -99 l334 0 l0 -222 l-119 0 l0 113 l-601 0 l0 -113 ZM909 194 l-362 0 l0 -146 q0 -88 -63 -111 q-49 -20 -188 -20 q-13 62 -50 118 q60 -2 152 -2 q25 0 25 17 l0 144 l-360 0 l0 110 l360 0 l0 51 q55 28 119 80 l-313 0 l0 108 l429 0 l26 6 l77 -61 q-94 -99 -214 -168 l0 -16 l362 0 l0 -110 Z" /><glyph glyph-name="uni5B87" unicode="&#x5b87;" d="M553 325 l354 0 l0 -109 l-354 0 l0 -163 q0 -88 -62 -112 q-54 -21 -197 -21 q-10 50 -49 117 q62 -3 157 -3 q28 1 28 22 l0 160 l-365 0 l0 109 l365 0 l0 110 l-219 0 l0 108 l540 0 l0 -108 l-198 0 l0 -110 ZM907 726 l0 -226 l-120 0 l0 120 l-613 0 l0 -120 l-114 0 l0 226 l362 0 q-10 31 -27 62 l117 33 q26 -47 45 -95 l350 0 Z" /><glyph glyph-name="uni5B89" unicode="&#x5b89;" d="M195 501 l-117 0 l0 216 l338 0 q-11 26 -37 80 l121 28 q28 -49 53 -108 l343 0 l0 -216 l-123 0 l0 110 l-578 0 l0 -110 ZM404 338 q-34 -55 -54 -84 q64 -22 160 -58 q63 61 98 142 l-204 0 ZM742 338 q-43 -109 -117 -188 q183 -77 285 -139 l-94 -98 q-103 68 -289 151 q-146 -101 -396 -148 q-26 58 -69 106 q209 29 337 96 q-131 54 -231 86 l2 2 q44 56 90 132 l-201 0 l0 109 l263 0 q41 78 66 142 l129 -25 q-20 -51 -54 -117 l452 0 l0 -109 l-173 0 Z" /><glyph glyph-name="uni5BA2" unicode="&#x5ba2;" d="M650 218 q-94 31 -166 65 q-72 -36 -153 -65 l319 0 ZM650 40 l0 83 l-328 0 l0 -83 l328 0 ZM371 485 q46 -42 114 -79 q69 42 111 83 l-220 0 l-5 -4 ZM773 534 q-63 -100 -171 -180 q156 -54 342 -71 q-40 -41 -73 -112 q-48 7 -103 17 l0 -271 l-118 0 l0 28 l-328 0 l0 -30 l-112 0 l0 267 q-58 -15 -127 -28 q-22 61 -55 103 q192 26 346 93 q-45 33 -87 72 q-48 -33 -118 -65 q-33 55 -77 87 q191 71 272 194 l-181 0 l0 -108 l-113 0 l0 213 l361 0 q-12 24 -32 63 l116 28 q6 -14 24 -45 q17 -31 25 -46 l339 0 l0 -213 l-119 0 l0 108 l-403 0 l108 -22 l-31 -40 l217 0 l19 5 l79 -47 Z" /><glyph glyph-name="uni5BBF" unicode="&#x5bbf;" d="M184 557 l-112 0 l0 183 l348 0 q-8 26 -23 57 l123 34 q16 -31 41 -91 l340 0 l0 -160 l-118 0 l0 63 l-599 0 l0 -86 ZM357 582 q-40 -86 -85 -155 l0 -512 l-110 0 l0 371 q-38 -40 -74 -69 q-28 61 -66 107 q149 114 228 293 l107 -35 ZM757 295 l-267 0 l0 -72 l267 0 l0 72 ZM757 53 l0 77 l-267 0 l0 -77 l267 0 ZM684 460 q-23 -63 -25 -67 l213 0 l0 -474 l-115 0 l0 36 l-267 0 l0 -40 l-109 0 l0 478 l160 0 q9 45 13 67 l-203 0 l0 102 l565 0 l0 -102 l-232 0 Z" /><glyph glyph-name="uni5BDD" unicode="&#x5bdd;" d="M170 583 l-104 0 l0 175 l355 0 q-7 25 -20 51 l126 23 q21 -36 34 -74 l348 0 l0 -175 l-67 0 l0 -223 l-464 0 l0 71 l359 0 l0 34 l-335 0 l0 60 l335 0 l0 32 l-354 0 l0 69 l416 0 l0 39 l-629 0 l0 -82 ZM200 634 l105 0 l0 -717 l-105 0 l0 233 q-78 -49 -129 -79 l-48 103 q39 17 177 91 l0 90 l-80 -37 q-17 77 -74 188 l87 38 q46 -84 67 -145 l0 235 ZM537 142 q34 -32 80 -57 q43 25 75 57 l-155 0 ZM434 252 l0 -35 l324 0 l17 3 l29 -11 l0 43 l-370 0 ZM831 179 q-41 -77 -112 -133 q90 -25 205 -35 q-34 -33 -62 -89 q-137 18 -243 63 q-103 -47 -243 -70 q-15 47 -47 86 q99 12 192 41 q-49 36 -90 89 l35 11 l-54 0 l0 37 l-75 0 l0 150 l567 0 l0 -150 l-73 0 Z" /><glyph glyph-name="uni5DE1" unicode="&#x5de1;" d="M816 89 q-44 156 -173 377 q102 208 141 340 l114 -30 q-21 -67 -136 -310 q114 -182 170 -330 l-116 -47 ZM620 90 q-38 151 -159 377 q87 191 129 339 l113 -28 q-20 -68 -125 -311 q107 -188 157 -332 l-115 -45 ZM426 88 q-34 153 -143 378 q79 196 116 340 l113 -27 q-24 -84 -115 -313 q104 -197 145 -334 l-116 -44 ZM188 578 q-36 72 -141 181 l92 58 q108 -100 149 -173 l-100 -66 ZM258 130 q56 -34 63 -38 q76 -44 266 -44 q205 0 357 24 q-33 -75 -36 -127 q-161 -12 -325 -12 q-187 0 -280 52 q-104 55 -101 55 q-31 0 -106 -123 l-81 115 q65 71 128 101 l0 231 l-108 0 l0 109 l223 0 l0 -343 Z" /><glyph glyph-name="uni2F2F" unicode="&#x2f2f;&#x5de5;" d="M929 99 l0 -116 l-882 0 l0 116 l370 0 l0 502 l-318 0 l0 120 l776 0 l0 -120 l-326 0 l0 -502 l380 0 Z" /><glyph glyph-name="uni5E02" unicode="&#x5e02;" d="M543 579 l0 -109 l312 0 l0 -327 q0 -85 -52 -107 q-42 -19 -171 -19 q-8 55 -39 113 q79 -5 121 -2 q21 0 21 17 l0 212 l-192 0 l0 -437 l-121 0 l0 437 l-179 0 l0 -340 l-117 0 l0 453 l296 0 l0 109 l-377 0 l0 112 l389 0 q-23 57 -50 107 l115 36 q57 -106 73 -143 l358 0 l0 -112 l-387 0 Z" /><glyph glyph-name="uni5E38" unicode="&#x5e38;" d="M339 402 l288 0 l0 60 l-288 0 l0 -60 ZM849 63 q0 -77 -50 -99 q-38 -16 -160 -16 q-10 54 -37 104 q44 -2 109 -2 q19 0 19 15 l0 94 l-175 0 l0 -244 l-119 0 l0 244 l-183 0 l0 -201 l-117 0 l0 304 l300 0 l0 58 l-208 0 l0 224 l517 0 l0 -224 l-190 0 l0 -58 l294 0 l0 -199 ZM905 690 l0 -234 l-116 0 l0 134 l-607 0 l0 -134 l-111 0 l0 234 l131 0 q-24 47 -54 85 l104 42 q52 -58 71 -103 l-52 -24 l154 0 l0 133 l120 0 l0 -133 l152 0 l-54 20 q40 48 70 106 l124 -37 q-42 -51 -80 -89 l148 0 Z" /><glyph glyph-name="uni5E93" unicode="&#x5e93;" d="M929 623 l-465 0 l105 -33 l-22 -50 l349 0 l0 -103 l-401 0 q-24 -44 -68 -113 l130 0 l0 81 l115 0 l0 -81 l191 0 l-1 -103 l-190 0 l0 -77 l255 0 l0 -106 l-255 0 l0 -122 l-115 0 l0 122 l-320 0 l0 106 l320 0 l0 77 l-144 0 q-81 0 -97 -14 q-12 46 -39 110 q26 7 57 56 q10 13 36 64 l-109 0 l0 103 l156 0 q16 39 30 83 l-222 0 l0 -164 q0 -374 -104 -547 q-45 43 -98 66 q87 146 87 481 l0 272 l367 0 q-11 32 -29 70 l116 25 q28 -47 43 -95 l322 0 l0 -108 Z" /><glyph glyph-name="uni5E94" unicode="&#x5e94;" d="M225 450 q0 -368 -94 -544 q-46 44 -102 67 q79 147 79 477 l0 261 l371 0 q-14 43 -37 96 l116 27 q30 -66 51 -123 l313 0 l0 -110 l-697 0 l0 -151 ZM522 202 q-14 115 -77 333 l105 27 q63 -205 84 -330 l-112 -30 ZM354 515 q76 -193 110 -330 l-109 -45 q-26 127 -103 335 l102 40 ZM933 62 l0 -109 l-722 0 l0 109 l359 0 q138 212 200 504 l124 -41 q-75 -251 -202 -463 l241 0 Z" /><glyph glyph-name="uni5E9C" unicode="&#x5e9c;" d="M221 432 q0 -357 -92 -523 q-47 47 -102 66 q77 141 77 456 l0 297 l363 0 q-6 18 -30 76 l116 30 q29 -52 48 -106 l327 0 l0 -107 l-707 0 l0 -189 ZM497 582 q-27 -78 -69 -157 l0 -508 l-109 0 l0 350 q-16 -19 -50 -51 q-18 55 -48 108 q114 108 162 289 l114 -31 ZM575 320 q64 -102 96 -178 l-97 -46 q-27 76 -92 187 l93 37 ZM929 363 l-91 0 l0 -318 q0 -85 -51 -109 q-41 -20 -169 -20 q-8 56 -35 113 q48 -2 118 -2 q21 1 21 19 l0 317 l-253 0 l0 106 l253 0 l0 128 l116 0 l0 -128 l91 0 l0 -106 Z" /><glyph glyph-name="uni5EA6" unicode="&#x5ea6;" d="M225 482 q0 -381 -93 -565 q-45 33 -106 50 q85 162 85 514 l0 258 l362 0 q-13 42 -23 64 l117 26 q22 -44 37 -90 l320 0 l0 -108 l-699 0 l0 -149 ZM484 454 l0 -64 l177 0 l0 64 l-177 0 ZM376 303 l0 151 l-131 0 l0 91 l131 0 l0 64 l108 0 l0 -64 l177 0 l0 64 l115 0 l0 -64 l140 0 l0 -91 l-140 0 l0 -151 l-400 0 ZM437 174 q49 -46 128 -79 q78 33 128 79 l-256 0 ZM867 231 q-58 -108 -171 -180 q101 -24 244 -34 q-35 -38 -66 -100 q-185 18 -315 70 q-129 -46 -307 -65 q-16 52 -47 96 q139 12 229 34 q-67 46 -117 106 l38 16 l-103 0 l0 90 l523 0 l20 4 l72 -37 Z" /><glyph glyph-name="uni5EFA" unicode="&#x5efa;" d="M651 659 l0 -42 l112 0 l0 42 l-112 0 ZM763 528 l-112 0 l0 -42 l112 0 l0 42 ZM543 659 l-165 0 l0 88 l165 0 l0 72 l108 0 l0 -72 l213 0 l0 -130 l53 0 l0 -89 l-53 0 l0 -129 l-213 0 l0 -47 l223 0 l0 -83 l-223 0 l0 -48 l255 0 l0 -91 l-255 0 l0 -66 l-108 0 l0 66 l-215 0 l0 91 l215 0 l0 48 l-176 0 l0 83 l176 0 l0 47 l-170 0 l0 87 l170 0 l0 42 l-219 0 l0 89 l219 0 l0 42 ZM339 483 q-19 -212 -76 -352 q108 -92 353 -94 q257 0 323 3 q-26 -38 -41 -106 l-285 0 q-270 0 -396 104 q-44 -73 -107 -121 q-37 49 -84 75 q68 47 116 128 q-53 81 -86 189 l85 28 q18 -63 47 -113 q25 68 38 172 l-155 0 q65 121 129 273 l-144 0 l0 100 l299 0 q-63 -151 -123 -273 l23 0 l20 2 l64 -15 Z" /><glyph glyph-name="uni5F02" unicode="&#x5f02;" d="M245 683 l0 -70 l452 0 l0 70 l-452 0 ZM707 442 q58 0 76 12 q19 14 26 63 l-564 0 l0 -27 q0 -31 23 -40 q23 -8 105 -8 l334 0 ZM375 342 q-144 0 -193 29 q-52 30 -52 116 l0 292 l681 0 l0 -259 q47 -26 107 -35 q-13 -86 -54 -115 q-41 -28 -150 -28 l-339 0 ZM928 128 l-203 0 l0 -211 l-114 0 l0 211 l-267 0 q-39 -145 -224 -216 q-29 54 -74 91 q130 45 171 125 l-172 0 l0 105 l197 0 l0 85 l114 0 l0 -85 l255 0 l0 85 l114 0 l0 -85 l203 0 l0 -105 Z" /><glyph glyph-name="uni5F3A" unicode="&#x5f3a;" d="M372 335 q-1 -31 -3 -45 q-16 -287 -53 -330 q-26 -32 -76 -38 q-44 -6 -119 -2 q-4 61 -32 105 q40 -4 96 -4 q23 0 33 11 q25 24 35 199 l-219 1 q27 159 38 327 l188 0 l0 109 l-208 0 l0 105 l316 0 l0 -319 l-203 0 q-8 -81 -13 -119 l220 0 ZM783 70 q-21 40 -34 62 l79 30 l-124 0 l0 -97 l79 5 ZM595 254 l0 97 l-79 0 l0 -97 l79 0 ZM704 351 l0 -97 l81 0 l0 97 l-81 0 ZM540 603 l212 0 l0 75 l-212 0 l0 -75 ZM847 -94 q-7 33 -20 63 q-289 -23 -440 -33 l-13 113 q82 2 221 10 l0 103 l-179 0 l0 283 l179 0 l0 64 l-159 0 l0 263 l426 0 l0 -263 l-158 0 l0 -64 l186 0 l0 -283 l-43 0 q76 -123 101 -215 l-101 -41 Z" /><glyph glyph-name="uni5F71" unicode="&#x5f71;" d="M898 761 q-96 -136 -255 -235 q-36 47 -82 81 q151 80 228 199 l109 -45 ZM919 499 q-106 -146 -275 -249 q-32 46 -80 81 q172 94 250 213 l105 -45 ZM199 580 l242 0 l0 37 l-242 0 l0 -37 ZM199 683 l242 0 l0 35 l-242 0 l0 -35 ZM589 378 l-543 0 l0 87 l218 0 l-14 29 l76 16 l-237 0 l0 278 l466 0 l0 -278 l-190 0 q17 -28 22 -45 l202 0 l0 -87 ZM229 112 q-43 -95 -105 -167 q-35 33 -79 60 q53 55 88 136 l96 -29 ZM212 219 l217 0 l0 51 l-217 0 l0 -51 ZM374 145 l0 -128 q0 -67 -40 -85 q-32 -15 -122 -15 q-8 45 -32 93 q29 -1 69 -1 q12 0 12 11 l0 125 l-156 0 l0 200 l437 0 l0 -200 l-168 0 ZM938 232 q-109 -194 -315 -309 q-30 48 -76 89 l8 -22 l-85 -40 q-24 68 -80 158 l82 34 q45 -71 73 -127 q198 94 286 257 l107 -40 Z" /><glyph glyph-name="uni5F97" unicode="&#x5f97;" d="M757 714 l-252 0 l0 -49 l252 0 l0 49 ZM757 589 l-252 0 l0 -50 l252 0 l0 50 ZM874 458 l-481 0 l0 336 l481 0 l0 -336 ZM336 777 q-106 -148 -254 -244 q-22 49 -58 98 q135 83 202 190 l110 -44 ZM352 566 q-31 -54 -84 -122 l0 -527 l-112 0 l0 402 q-49 -49 -87 -78 q-23 68 -55 119 q153 107 237 250 l101 -44 ZM926 168 l-133 0 l0 -138 q0 -77 -47 -97 q-36 -16 -151 -16 q-7 45 -36 102 q41 -2 99 -2 q18 1 18 16 l0 135 l-204 0 q75 -71 111 -121 l-87 -62 q-32 56 -112 135 l72 48 l-136 0 l0 98 l356 0 l0 55 l-332 0 l0 95 l562 0 l0 -95 l-113 0 l0 -55 l132 0 l1 -98 Z" /><glyph glyph-name="uni5FAE" unicode="&#x5fae;" d="M284 784 q-86 -138 -205 -234 q-29 56 -59 88 q105 81 162 185 l102 -39 ZM289 569 q-39 -76 -53 -99 l0 -554 l-105 0 l0 403 q-22 -28 -55 -63 q-26 56 -62 104 q113 106 182 259 l93 -34 l0 156 l74 0 l0 -154 l43 0 l0 235 l83 0 l0 -235 l43 0 l0 154 l77 0 l0 -244 l-320 0 l0 72 ZM643 200 q8 -45 23 -81 q-143 -87 -169 -122 q-16 61 -40 93 q31 20 31 68 l0 70 l-75 0 l0 -24 q0 -187 -89 -281 q-31 49 -71 76 q63 70 63 206 l0 111 l262 0 l0 -151 l65 35 ZM732 534 q-1 -5 -4 -14 l-5 -14 q16 -116 42 -205 q27 95 41 233 l-74 0 ZM905 534 q-26 -232 -88 -369 q54 -104 135 -153 q-46 -41 -73 -92 q-71 53 -119 140 q-60 -87 -147 -147 q-23 44 -63 83 q103 65 162 174 q-28 78 -50 196 q-9 -16 -22 -36 l-35 50 l0 -30 l-325 0 l0 97 l305 0 q70 124 98 374 l103 -17 q-12 -94 -29 -173 l181 0 l0 -97 l-33 0 Z" /><glyph glyph-name="uni2F3C" unicode="&#x2f3c;&#x5fc3;" d="M399 807 q192 -122 269 -201 l-85 -90 q-78 87 -263 212 l79 79 ZM822 519 q92 -193 126 -361 l-118 -48 q-23 158 -115 366 l107 43 ZM225 467 q-28 -262 -71 -403 l-116 47 q53 163 75 377 l112 -21 ZM408 546 l0 -451 q0 -34 9 -44 q10 -9 45 -9 l139 0 q36 0 48 35 q11 32 16 147 q44 -33 109 -48 q-11 -141 -43 -191 q-33 -51 -121 -51 l-161 0 q-95 0 -129 35 q-33 34 -33 126 l0 451 l121 0 Z" /><glyph glyph-name="uni60F3" unicode="&#x60f3;" d="M598 342 l179 0 l0 58 l-179 0 l0 -58 ZM598 484 l179 0 l0 57 l-179 0 l0 -57 ZM598 626 l179 0 l0 57 l-179 0 l0 -57 ZM474 278 l19 -18 l0 514 l394 0 l0 -523 l-384 0 q71 -65 103 -102 l-84 -70 q-43 56 -128 135 l80 64 ZM209 431 q-52 -90 -110 -141 q-29 44 -74 80 q102 76 165 216 l-140 0 l0 98 l159 0 l0 137 l109 0 l0 -137 l137 0 l0 -98 l-137 0 l0 -36 q80 -45 154 -106 l-60 -93 q-34 37 -94 92 l0 -203 l-109 0 l0 191 ZM32 21 q56 84 85 200 l102 -40 q-40 -144 -81 -212 l-106 52 ZM586 37 q34 0 44 19 q10 19 15 93 q36 -29 104 -41 q-11 -104 -42 -139 q-31 -34 -112 -34 l-175 0 q-98 0 -132 29 q-33 27 -33 104 l0 133 l114 0 l0 -131 q0 -21 12 -27 q10 -6 50 -6 l155 0 ZM822 234 q108 -167 122 -193 l-108 -56 q-11 24 -115 202 l101 47 Z" /><glyph glyph-name="uni611F" unicode="&#x611f;" d="M35 -3 q57 80 93 178 l103 -36 q-61 -142 -87 -185 l-109 43 ZM540 520 l-299 0 l0 77 l299 0 l0 -77 ZM442 402 l-107 0 l0 -72 l107 0 l0 72 ZM530 253 l-286 0 l0 226 l286 0 l0 -179 q45 25 90 65 q-41 107 -57 276 l-346 0 l0 -57 q0 -266 -100 -398 q-38 44 -86 70 q81 108 81 330 l0 146 l445 0 q-3 46 -3 91 l109 0 q0 -62 1 -91 l88 0 q-44 36 -60 48 l68 47 q61 -40 99 -76 l-25 -19 l88 0 l0 -91 l-252 0 q10 -105 33 -187 q55 76 85 161 l104 -25 q-51 -137 -142 -240 q30 -40 67 -40 q30 0 36 117 q37 -34 89 -48 q-11 -101 -39 -137 q-27 -35 -89 -35 q-82 0 -140 67 q-37 -31 -76 -57 q-26 33 -68 70 l0 -34 ZM492 237 q88 -87 124 -135 l-97 -48 q-24 39 -118 142 l91 41 ZM593 18 q37 0 48 20 q10 18 14 91 q34 -23 106 -37 q-11 -97 -43 -130 q-32 -32 -117 -32 l-184 0 q-100 0 -136 25 q-35 25 -35 94 l0 139 l117 0 l0 -138 q0 -21 12 -26 q11 -6 54 -6 l164 0 ZM829 192 q72 -110 105 -186 l-111 -38 q-22 63 -96 192 l102 32 Z" /><glyph glyph-name="uni6167" unicode="&#x6167;" d="M630 517 l-144 0 l0 68 l144 0 l0 32 l-116 0 l0 67 l116 0 l0 31 l-136 0 l0 67 l136 0 l0 40 l108 0 l0 -40 l147 0 l0 -67 l-147 0 l0 -31 l132 0 l0 -67 l-132 0 l0 -32 l166 0 l0 -68 l-166 0 l0 -37 l-108 0 l0 37 ZM831 184 l-314 0 q63 -40 89 -72 l-73 -65 q-35 47 -114 95 l49 42 l-339 0 l0 73 l588 0 l0 36 l-549 0 l0 67 l549 0 l0 34 l-582 0 l0 72 l696 0 l0 -282 ZM216 517 l-156 0 l0 68 l156 0 l0 32 l-120 0 l0 67 l120 0 l0 31 l-143 0 l0 67 l143 0 l0 40 l105 0 l0 -40 l129 0 l0 -67 l-129 0 l0 -31 l118 0 l0 -67 l-118 0 l0 -32 l138 0 l0 -68 l-138 0 l0 -37 l-105 0 l0 37 ZM51 -7 q55 65 83 161 l100 -42 q-45 -126 -82 -175 l-101 56 ZM603 24 q31 0 41 15 q9 14 13 68 q35 -24 100 -36 q-9 -84 -40 -113 q-30 -28 -104 -28 l-184 0 q-99 0 -133 26 q-34 26 -34 96 l0 104 l115 0 l0 -102 q0 -19 11 -25 q12 -5 53 -5 l162 0 ZM850 163 q70 -110 93 -191 l-115 -32 q-21 88 -84 195 l106 28 Z" /><glyph glyph-name="uni6210" unicode="&#x6210;" d="M878 484 q-60 -187 -167 -333 q44 -110 90 -110 q33 0 40 170 q40 -42 98 -65 q-14 -131 -47 -179 q-31 -44 -101 -44 q-95 0 -164 128 q-74 -76 -164 -132 q-35 51 -83 96 q112 61 198 157 q-47 154 -67 391 l-282 0 l0 -104 l240 0 l-1 -43 q-4 -285 -31 -319 q-23 -31 -67 -39 q-30 -5 -112 -3 q-4 61 -32 108 q47 -4 84 -4 q19 0 29 12 q12 17 16 182 l-126 0 q-9 -307 -104 -449 q-48 52 -98 79 q81 127 81 411 l0 284 l396 0 q-4 95 -4 143 l121 0 q-1 -64 2 -143 l149 0 q-44 35 -124 84 l69 69 q105 -53 159 -104 l-47 -49 l101 0 l0 -115 l-300 0 q13 -145 39 -266 q60 103 93 216 l116 -29 Z" /><glyph glyph-name="uni6211" unicode="&#x6211;" d="M820 576 q-42 75 -137 160 l87 59 q104 -90 144 -154 l-94 -65 ZM891 362 q-64 -115 -161 -212 q42 -120 86 -120 q30 0 36 161 q41 -43 96 -66 q-14 -125 -45 -170 q-30 -42 -98 -42 q-100 0 -167 153 q-83 -69 -180 -118 q-30 50 -76 93 q112 51 216 137 q-31 113 -49 260 l-198 0 l0 -111 l75 14 q51 9 75 13 l9 -104 l-159 -33 l0 -166 q0 -87 -52 -112 q-49 -24 -175 -22 q-7 53 -41 116 q74 -4 129 -1 q23 0 23 20 l0 141 l-174 -35 l-28 117 q144 22 202 33 l0 130 l-184 0 l0 110 l184 0 l0 110 q-63 -10 -155 -21 q-8 45 -33 97 q230 31 385 82 l78 -99 q-65 -19 -159 -38 l0 -131 l187 0 q-10 111 -12 266 l122 0 q-3 -130 9 -266 l264 0 l0 -110 l-252 0 q12 -88 28 -164 q58 70 92 132 l102 -44 Z" /><glyph glyph-name="uni6218" unicode="&#x6218;" d="M831 603 q-24 55 -89 142 l78 43 q71 -90 95 -136 l-84 -49 ZM384 94 l0 195 l-208 0 l0 -195 l208 0 ZM922 406 q-50 -151 -140 -272 q28 -82 58 -84 q23 -2 31 128 q24 -29 81 -64 q-30 -200 -111 -198 q-85 3 -139 125 q-66 -67 -137 -108 q-30 39 -74 73 l0 -67 l-107 0 l0 50 l-208 0 l0 -55 l-103 0 l0 459 l135 0 l0 419 l110 0 l0 -158 l186 0 l0 -102 l-186 0 l0 -159 l173 0 l0 -376 q94 48 175 136 q-28 115 -45 287 l-109 -16 l-16 99 l118 17 q-8 115 -13 275 l107 0 q1 -131 10 -261 l203 29 l16 -98 l-211 -31 q10 -99 25 -186 q55 92 85 186 l86 -48 Z" /><glyph glyph-name="uni6280" unicode="&#x6280;" d="M371 304 q-61 -18 -104 -28 l0 -232 q0 -78 -44 -102 q-37 -21 -146 -21 q-9 51 -33 105 q38 -1 90 -1 q18 0 18 20 l0 200 l-94 -24 l-30 110 q48 9 124 28 l0 172 l-111 0 l0 107 l111 0 l0 184 l115 0 l0 -184 l95 0 l0 -107 l-95 0 l0 -144 l89 23 l15 -106 ZM526 357 q41 -97 115 -172 q78 76 121 172 l-236 0 ZM909 435 q-54 -195 -181 -322 q92 -65 224 -98 q-39 -39 -73 -100 q-144 42 -242 122 q-110 -76 -255 -120 q-25 61 -63 105 q134 32 232 95 q-85 98 -137 232 l29 8 l-51 0 l0 104 l191 0 l0 117 l-208 0 l0 106 l208 0 l0 139 l115 0 l0 -139 l218 0 l0 -106 l-218 0 l0 -117 l117 0 l20 5 l74 -31 Z" /><glyph glyph-name="uni6301" unicode="&#x6301;" d="M345 307 l-92 -26 l0 -237 q0 -76 -39 -100 q-35 -24 -133 -22 q-6 55 -31 107 q57 -3 81 -1 q17 0 17 17 l0 205 l-100 -30 l-26 111 l126 31 l0 170 l-110 0 l0 107 l110 0 l0 182 l105 0 l0 -182 l83 0 l0 -107 l-83 0 l0 -143 l77 22 l15 -104 ZM504 232 q79 -97 109 -165 l-98 -56 q-26 68 -102 170 l91 51 ZM826 417 l0 -76 l107 0 l0 -105 l-107 0 l0 -198 q0 -82 -48 -104 q-40 -18 -157 -18 q-7 50 -33 108 q73 -3 110 -1 q19 0 19 17 l0 196 l-358 0 l0 105 l358 0 l0 76 l-367 0 l0 105 l241 0 l0 85 l-199 0 l0 105 l199 0 l0 105 l110 0 l0 -105 l195 0 l0 -105 l-195 0 l0 -85 l239 0 l0 -105 l-114 0 Z" /><glyph glyph-name="uni6311" unicode="&#x6311;" d="M469 812 l106 0 l0 -423 q0 -172 -37 -268 q-49 -129 -180 -202 q-33 46 -81 81 q150 81 180 239 q-40 -33 -112 -89 l-60 97 q51 30 182 117 l2 -4 l0 129 l-57 -35 q-26 80 -85 181 l0 -103 l-80 0 l0 -125 l73 27 l22 -102 q-31 -13 -95 -36 l0 -258 q0 -77 -39 -101 q-36 -23 -134 -21 q-6 54 -30 106 q56 -3 80 -1 q17 0 17 17 l0 217 l-90 -33 l-28 109 q84 27 118 39 l0 162 l-105 0 l0 107 l105 0 l0 182 l106 0 l0 -182 l78 0 l-8 14 l85 47 q25 -38 67 -117 l0 229 ZM823 28 q15 0 20 26 q5 25 7 100 q43 -34 97 -45 q-8 -101 -32 -141 q-26 -43 -82 -43 l-84 0 q-66 0 -89 32 q-23 32 -23 124 l0 731 l109 0 l0 -284 q53 103 78 184 l103 -53 q-90 -164 -119 -205 l-62 35 l0 -108 l28 27 q116 -97 174 -171 l-74 -82 q-43 61 -128 145 l0 -220 q0 -34 4 -43 q3 -9 19 -9 l54 0 Z" /><glyph glyph-name="uni6316" unicode="&#x6316;" d="M447 537 l-100 0 l0 183 l241 0 q-12 51 -35 92 l112 19 q31 -54 46 -111 l214 0 l0 -183 l-105 0 l0 90 l-373 0 l0 -90 ZM726 585 q128 -88 191 -158 l-81 -73 q-60 75 -186 167 l76 64 ZM339 309 l-90 -28 l0 -237 q0 -78 -39 -102 q-37 -24 -135 -24 q-5 54 -31 111 q35 -2 80 -2 q17 0 17 18 l0 205 q-71 -22 -83 -25 l-26 111 q30 7 109 27 l0 169 l-102 0 l0 107 l102 0 l0 181 l108 0 l0 -181 l73 0 l0 -107 l-73 0 l0 -140 l75 21 l15 -104 ZM619 548 q-83 -113 -213 -186 q-31 46 -71 83 q121 57 186 138 l98 -35 ZM788 48 q27 0 36 18 q12 22 15 96 q45 -27 98 -36 q-10 -112 -45 -151 q-31 -34 -110 -34 l-230 0 q-173 0 -173 116 q0 42 28 76 q41 50 165 128 l-181 0 l0 97 l363 0 l24 3 l75 -44 q-6 -12 -17 -20 q-344 -176 -344 -224 q0 -25 57 -25 l239 0 Z" /><glyph glyph-name="uni6398" unicode="&#x6398;" d="M242 277 l0 -227 q0 -76 -39 -99 q-35 -24 -133 -22 q-5 51 -30 106 q60 -2 80 0 q16 0 16 16 l0 196 l-87 -27 l-26 111 q45 9 113 28 l0 173 l-97 0 l0 107 l97 0 l0 183 l106 0 l0 -183 l77 0 l0 -107 l-77 0 l0 -145 l71 21 l14 -105 l-85 -26 ZM456 689 l0 -80 l340 0 l0 80 l-340 0 ZM456 514 l0 -38 q0 -384 -109 -563 q-38 39 -89 64 q92 153 92 499 l0 308 l554 0 l0 -270 l-448 0 ZM909 189 l0 -270 l-93 0 l0 30 l-346 0 l0 239 l91 0 l0 -149 l78 0 l0 192 l-155 0 l0 222 l91 0 l0 -132 l64 0 l0 166 l95 0 l0 -166 l70 0 l0 134 l94 0 l0 -224 l-164 0 l0 -192 l82 0 l0 150 l93 0 Z" /><glyph glyph-name="uni63A7" unicode="&#x63a7;" d="M453 534 l-103 0 l0 178 l233 0 q-10 31 -35 89 l110 25 q29 -59 49 -114 l219 0 l0 -174 l-109 0 l0 76 l-364 0 l0 -80 ZM720 577 q180 -144 192 -155 l-73 -76 q-50 53 -188 163 l69 68 ZM341 301 l-96 -35 l0 -214 q0 -76 -39 -99 q-36 -24 -133 -22 q-5 51 -30 106 q60 -2 79 0 q17 0 17 16 l0 175 l-89 -31 l-22 111 q47 12 111 34 l0 203 l-98 0 l0 105 l98 0 l0 173 l106 0 l0 -173 l81 0 l0 -105 l-81 0 l0 -168 l77 25 l19 -101 ZM941 48 l0 -101 l-624 0 l0 101 l255 0 l0 193 l-180 0 l0 101 l20 0 q-28 45 -62 85 q112 63 174 145 l98 -37 q-85 -116 -199 -193 l447 0 l0 -101 l-183 0 l0 -193 l254 0 Z" /><glyph glyph-name="uni2F40" unicode="&#x2f40;&#x652f;" d="M313 354 q65 -109 177 -180 q114 72 177 180 l-354 0 ZM835 424 q-73 -188 -230 -309 q145 -59 334 -79 q-44 -47 -73 -114 q-227 32 -382 117 q-163 -86 -398 -123 q-20 64 -62 110 q203 26 350 88 q-106 86 -182 222 l53 18 l-128 0 l0 114 l305 0 l0 113 l-352 0 l0 114 l352 0 l0 127 l121 0 l0 -127 l354 0 l0 -114 l-354 0 l0 -113 l191 0 l20 4 l81 -48 Z" /><glyph glyph-name="uni653F" unicode="&#x653f;" d="M622 526 q25 -131 74 -244 q46 104 65 257 l-134 0 l-5 -13 ZM878 539 q-35 -231 -113 -374 q75 -100 182 -149 q-50 -44 -79 -99 q-100 51 -174 147 q-81 -93 -198 -150 q-17 48 -65 102 q124 54 198 150 q-46 88 -79 214 q-14 -22 -34 -48 q-21 24 -54 52 l0 -8 l-111 0 l0 -199 l137 29 l10 -106 q-91 -21 -241 -54 l-214 -48 l-21 118 l51 8 l0 414 l104 0 l0 -395 l62 11 l0 500 l-194 0 l0 111 l444 0 l0 -111 l-138 0 l0 -170 l111 0 l0 -24 q85 132 121 362 l114 -17 q-11 -69 -35 -159 l276 0 l0 -107 l-60 0 Z" /><glyph glyph-name="uni6559" unicode="&#x6559;" d="M651 539 q22 -128 60 -227 q36 104 51 227 l-111 0 ZM446 402 q23 28 46 71 l-113 0 q-23 -29 -42 -50 l54 0 l21 6 l34 -27 ZM286 572 l34 0 l44 65 l-78 0 l0 -65 ZM882 539 q-32 -221 -105 -361 q67 -109 172 -162 q-48 -43 -80 -101 q-98 59 -163 155 q-83 -96 -206 -158 q-21 54 -66 105 q135 59 209 166 q-40 90 -66 196 q-29 -47 -45 -67 q-20 23 -64 60 q-54 -63 -134 -126 l0 -28 l174 15 l0 -99 l-174 -16 l0 -92 q0 -73 -43 -92 q-36 -17 -141 -17 q-5 46 -33 99 q39 -1 93 -1 q16 1 16 13 l0 82 q-83 -7 -184 -17 l-13 103 l197 15 l0 55 q37 26 81 68 l-61 0 q-77 -64 -149 -104 q-31 45 -78 87 q61 33 98 58 l0 48 l64 0 q32 27 53 50 l-202 0 l0 99 l148 0 l0 65 l-111 0 l0 97 l111 0 l0 88 l106 0 l0 -88 l95 0 l0 -68 q34 57 61 132 l107 -29 q-39 -102 -99 -197 l54 0 l0 -77 q64 132 94 327 l117 -18 q-18 -99 -34 -158 l258 0 l0 -107 l-57 0 Z" /><glyph glyph-name="uni6570" unicode="&#x6570;" d="M510 772 q-78 -106 -88 -118 l-73 33 q33 50 64 123 l97 -38 ZM228 474 q-73 -73 -145 -112 q-25 51 -59 85 q91 36 164 113 l-143 0 l0 91 l75 0 q-11 51 -51 121 l81 34 q45 -61 59 -120 l-79 -35 l98 0 l0 171 l107 0 l0 -171 l183 0 l0 -91 l-141 0 q93 -53 114 -69 l-60 -80 q-34 33 -96 81 l0 -106 l-107 0 l0 88 ZM248 232 q-17 -31 -30 -51 q45 -22 79 -40 q44 43 68 91 l-117 0 ZM384 -23 q-34 26 -73 49 q-94 -71 -230 -109 q-24 58 -53 87 q108 24 190 75 q-62 33 -137 65 q22 32 55 88 l-74 0 l0 93 l121 0 q15 31 24 57 l102 -19 q-5 -13 -17 -38 l124 0 l17 3 l62 -23 q-33 -122 -112 -212 q38 -21 69 -43 l-68 -73 ZM653 537 q24 -122 60 -221 q33 98 47 221 l-107 0 ZM867 537 q-28 -210 -93 -345 q69 -118 176 -177 q-45 -37 -74 -92 q-97 60 -164 165 q-84 -110 -216 -177 q-25 54 -61 94 q146 65 219 185 q-36 79 -69 203 q-23 -45 -51 -86 q-28 35 -83 74 q104 135 143 438 l105 -15 q-13 -86 -29 -160 l258 0 l0 -107 l-61 0 Z" /><glyph glyph-name="uni65B0" unicode="&#x65b0;" d="M201 196 q-40 -111 -98 -176 q-42 35 -75 55 q53 52 84 143 l89 -22 ZM199 632 q25 -50 33 -108 l-47 -12 l115 0 q26 63 42 120 l-143 0 ZM328 245 l0 -208 q0 -66 -37 -87 q-31 -17 -119 -17 q-7 45 -31 94 q29 -1 70 -1 q13 0 13 14 l0 205 l-178 0 l0 97 l178 0 l0 75 l-184 0 l0 95 l95 0 q-9 56 -29 101 l79 19 l-131 0 l0 94 l166 0 q-11 34 -29 77 l103 24 q28 -60 42 -101 l153 0 l0 -94 l-122 0 l80 -15 q-48 -113 -44 -105 l101 0 l0 -95 l-176 0 l0 -75 l160 0 l0 -97 l-160 0 ZM937 396 l-90 0 l0 -477 l-113 0 l0 477 l-95 0 l0 -7 q0 -322 -96 -462 q-39 44 -89 69 q29 41 43 93 l-77 -48 q-23 59 -75 145 l75 42 q48 -71 78 -137 q33 104 33 298 l0 341 q194 35 294 83 l90 -85 q-110 -43 -276 -73 l0 -152 l298 0 l0 -107 Z" /><glyph glyph-name="uni2F46" unicode="&#x2f46;&#x65e0;" d="M778 52 q29 0 38 27 q7 24 12 118 q39 -32 111 -48 q-10 -124 -42 -167 q-31 -43 -110 -43 l-144 0 q-91 0 -124 34 q-31 32 -31 120 l0 250 q-79 -304 -379 -427 q-33 63 -78 97 q275 104 344 359 l-327 0 l0 114 l349 0 q7 66 11 163 l-303 0 l0 113 l772 0 l0 -113 l-350 0 q-6 -110 -12 -163 l415 0 l0 -114 l-320 0 l0 -277 q0 -27 8 -35 q9 -8 40 -8 l120 0 Z" /><glyph glyph-name="uni660E" unicode="&#x660e;" d="M176 665 l0 -138 l109 0 l0 138 l-109 0 ZM285 282 l0 142 l-109 0 l0 -142 l109 0 ZM176 177 l0 -84 l-107 0 l0 677 l323 0 l0 -593 l-216 0 ZM788 324 l0 125 l-191 0 l0 -16 q0 -58 -4 -109 l195 0 ZM597 677 l0 -125 l191 0 l0 125 l-191 0 ZM903 49 q0 -85 -51 -111 q-43 -21 -175 -21 q-9 56 -40 111 q74 -4 127 -1 q24 0 24 23 l0 170 l-208 0 q-41 -206 -167 -309 q-37 46 -89 74 q159 132 159 448 l0 350 l420 0 l0 -734 Z" /><glyph glyph-name="uni662F" unicode="&#x662f;" d="M705 709 l-445 0 l0 -50 l445 0 l0 50 ZM705 583 l-445 0 l0 -50 l445 0 l0 50 ZM822 452 l-674 0 l0 337 l674 0 l0 -337 ZM554 41 q38 -3 78 -3 q241 0 310 3 q-28 -48 -39 -111 l-277 0 q-143 0 -226 27 q-95 31 -153 111 q-54 -97 -136 -154 q-39 49 -88 80 q146 90 181 294 l115 -17 q-7 -36 -22 -88 q42 -91 140 -122 l0 247 l-379 0 l0 102 l857 0 l0 -102 l-361 0 l0 -73 l299 0 l0 -100 l-299 0 l0 -94 Z" /><glyph glyph-name="uni666E" unicode="&#x666e;" d="M278 238 l0 -59 l412 0 l0 59 l-412 0 ZM690 34 l0 60 l-412 0 l0 -60 l412 0 ZM165 325 l644 0 l0 -406 l-119 0 l0 26 l-412 0 l0 -29 l-113 0 l0 409 ZM228 618 q45 -61 62 -125 l-77 -32 l122 0 l0 157 l-107 0 ZM521 618 l-78 0 l0 -157 l78 0 l0 157 ZM672 483 q31 59 56 135 l-97 0 l0 -157 l116 0 l-75 22 ZM928 461 l0 -93 l-883 0 l0 93 l144 0 q-16 61 -59 129 l76 28 l-110 0 l0 94 l168 0 q-23 42 -49 76 l102 37 q47 -50 66 -96 l-42 -17 l238 0 q39 57 65 113 l113 -33 q-24 -42 -51 -80 l175 0 l0 -94 l-127 0 l82 -22 q-44 -89 -71 -135 l163 0 Z" /><glyph glyph-name="uni666F" unicode="&#x666f;" d="M265 573 l433 0 l0 42 l-433 0 l0 -42 ZM265 682 l433 0 l0 39 l-433 0 l0 -39 ZM911 370 l-857 0 l0 91 l368 0 q-5 13 -16 26 l44 14 l-296 0 l0 291 l660 0 l0 -291 l-293 0 q16 -22 25 -40 l365 0 l0 -91 ZM368 71 q-95 -81 -253 -143 q-39 48 -85 81 q156 44 232 105 l106 -43 ZM288 202 l395 0 l0 54 l-395 0 l0 -54 ZM545 123 l0 -108 q0 -68 -50 -85 q-38 -13 -156 -13 q-10 47 -32 89 q71 -4 104 -1 q18 1 18 14 l0 104 l-251 0 l0 212 l621 0 l0 -212 l-254 0 ZM661 111 q155 -52 255 -113 l-81 -71 q-87 57 -249 122 l75 62 Z" /><glyph glyph-name="uni667A" unicode="&#x667a;" d="M228 597 q1 8 1 21 l0 42 l-48 0 q-20 -33 -45 -63 l92 0 ZM409 340 q-39 35 -126 94 q-59 -84 -178 -140 q-32 48 -73 78 q131 51 173 135 l-161 0 l0 90 l65 0 q-39 24 -74 42 q75 70 107 189 l102 -21 q-13 -42 -20 -57 l241 0 l0 -90 l-126 0 l0 -43 q0 -13 -1 -20 l149 0 l0 -90 l-160 0 q103 -55 163 -93 l-81 -74 ZM286 235 l0 -54 l401 0 l0 54 l-401 0 ZM687 40 l0 57 l-401 0 l0 -57 l401 0 ZM173 325 l633 0 l0 -408 l-119 0 l0 31 l-401 0 l0 -32 l-113 0 l0 409 ZM775 650 l-148 0 l0 -165 l148 0 l0 165 ZM889 751 l0 -368 l-369 0 l0 368 l369 0 Z" /><glyph glyph-name="uni66F4" unicode="&#x66f4;&#xf901;" d="M263 219 q42 -51 94 -84 q38 35 57 84 l-151 0 ZM253 314 l178 0 q1 10 1 32 l0 31 l-179 0 l0 -63 ZM253 463 l179 0 l0 62 l-179 0 l0 -62 ZM553 525 l0 -62 l183 0 l0 62 l-183 0 ZM736 377 l-183 0 l0 -32 q0 -21 -1 -31 l184 0 l0 63 ZM539 219 q-21 -79 -71 -135 q140 -46 482 -44 q-37 -47 -49 -115 q-364 9 -528 81 q-106 -60 -263 -91 q-30 60 -70 102 q133 21 219 58 q-54 42 -100 108 l89 36 l-103 0 l0 399 l287 0 l0 58 l-372 0 l0 103 l851 0 l0 -103 l-358 0 l0 -58 l297 0 l0 -399 l-311 0 Z" /><glyph glyph-name="uni670D" unicode="&#x670d;" d="M289 345 l0 117 l-95 0 l0 -26 q0 -59 -1 -91 l96 0 ZM194 682 l0 -113 l95 0 l0 113 l-95 0 ZM396 42 q0 -81 -40 -105 q-35 -21 -135 -21 q-5 61 -31 111 q18 -1 83 -1 q16 0 16 18 l0 192 l-102 0 q-15 -206 -68 -321 q-41 33 -93 53 q64 141 64 468 l0 352 l306 0 l0 -746 ZM559 7 q61 34 119 99 q-65 97 -113 241 l-6 0 l0 -340 ZM663 347 q30 -82 75 -152 q40 69 63 152 l-138 0 ZM926 432 q-32 -190 -116 -325 q67 -68 143 -102 q-40 -38 -71 -90 q-76 42 -138 105 q-56 -61 -127 -103 q-23 42 -58 77 l0 -79 l-109 0 l0 872 l446 0 l0 -187 q0 -74 -51 -93 q-38 -15 -167 -15 q-7 40 -34 97 q77 -5 121 -2 q20 1 20 16 l0 78 l-226 0 l0 -231 l281 0 l17 4 l69 -22 Z" /><glyph glyph-name="uni6743" unicode="&#x6743;" d="M396 218 q-34 55 -96 132 l0 -434 l-114 0 l0 388 q-51 -152 -110 -231 q-24 62 -65 119 q101 119 154 332 l-123 0 l0 107 l144 0 l0 191 l114 0 l0 -191 l112 0 l0 -107 l-112 0 l0 -47 q86 -71 161 -153 l-65 -106 ZM550 629 q40 -216 110 -347 q90 142 129 347 l-239 0 ZM915 722 q-43 -340 -184 -543 q79 -96 210 -170 q-55 -41 -83 -98 q-123 79 -203 173 q-93 -101 -224 -167 q-35 65 -73 97 q132 56 228 167 q-94 158 -143 442 l29 6 l-50 0 l0 112 l400 0 l19 5 l74 -24 Z" /><glyph glyph-name="uni679C" unicode="&#x679c;" d="M426 468 l0 62 l-156 0 l0 -62 l156 0 ZM270 619 l156 0 l0 63 l-156 0 l0 -63 ZM703 682 l-154 0 l0 -63 l154 0 l0 63 ZM703 530 l-154 0 l0 -62 l154 0 l0 62 ZM633 209 q139 -113 315 -163 q-45 -40 -78 -98 q-180 68 -321 206 l0 -238 l-123 0 l0 234 q-140 -140 -323 -208 q-37 57 -79 96 q189 55 318 171 l-288 0 l0 106 l372 0 l0 57 l-277 0 l0 406 l681 0 l0 -406 l-281 0 l0 -57 l370 0 l0 -106 l-286 0 Z" /><glyph glyph-name="uni67E5" unicode="&#x67e5;" d="M61 44 l849 0 l0 -101 l-849 0 l0 101 ZM750 412 q-124 71 -210 174 l0 -146 l-115 0 l0 146 q-84 -102 -200 -174 l525 0 ZM642 336 l-326 0 l0 -48 l326 0 l0 48 ZM642 216 l-326 0 l0 -51 l326 0 l0 51 ZM649 614 q124 -116 294 -164 q-45 -39 -75 -94 q-64 25 -105 48 l0 -315 l-562 0 l0 308 q-47 -27 -101 -48 q-33 55 -74 92 q165 52 288 173 l-260 0 l0 100 l371 0 l0 108 l115 0 l0 -108 l378 0 l0 -100 l-269 0 Z" /><glyph glyph-name="uni6821" unicode="&#x6821;" d="M326 216 q-14 41 -54 128 l0 -428 l-106 0 l0 392 q-45 -154 -92 -230 q-20 57 -54 114 q79 111 127 332 l-97 0 l0 107 l116 0 l0 192 l106 0 l0 -191 l96 0 l0 -108 l-96 0 l0 -31 q11 -15 120 -190 l-66 -87 ZM850 326 q-10 20 -24 39 q-39 -123 -106 -215 q98 -86 231 -124 q-44 -41 -76 -104 q-135 47 -231 140 q-95 -91 -233 -147 q-31 55 -73 90 q138 52 232 144 q-60 85 -107 204 q-7 -6 -39 -34 q-28 34 -79 72 q91 70 162 190 l102 -47 q-44 -69 -111 -145 l56 15 q31 -89 88 -167 q52 77 76 168 l99 -26 q-53 73 -130 147 l66 56 l-361 0 l0 105 l219 0 q-22 53 -61 108 l101 38 q50 -59 74 -119 l-61 -27 l264 0 l0 -105 l-152 0 q116 -109 159 -183 l-85 -73 Z" /><glyph glyph-name="uni68C0" unicode="&#x68c0;" d="M772 526 q-91 74 -159 150 q-63 -82 -133 -150 l292 0 ZM302 269 q-17 41 -45 99 l0 -452 l-104 0 l0 372 q-34 -107 -72 -172 q-15 45 -53 117 q75 105 117 308 l-106 0 l0 107 l114 0 l0 174 l104 0 l0 -174 l78 0 l0 -99 q167 119 256 284 l99 -38 q-6 -12 -19 -33 q116 -135 279 -212 q-34 -55 -54 -112 q-52 32 -101 70 l0 -79 l-344 0 l0 71 q-43 -40 -96 -78 q-31 59 -67 95 l36 24 l-67 0 l0 -32 q68 -87 111 -163 l-66 -77 ZM602 136 q-5 84 -36 230 l88 12 q30 -121 42 -228 l-94 -14 ZM433 104 q-11 100 -51 233 l88 23 q43 -127 58 -229 l-95 -27 ZM899 356 q-76 -189 -135 -301 l148 0 l0 -101 l-575 0 l0 101 l332 0 q77 145 130 324 l100 -23 Z" /><glyph glyph-name="uni697C" unicode="&#x697c;" d="M310 261 q-21 50 -48 103 l0 -447 l-105 0 l0 353 q-37 -114 -79 -180 q-16 47 -55 117 q85 112 131 328 l-106 0 l0 107 l109 0 l0 180 l105 0 l0 -180 l84 0 l0 -107 l-84 0 l0 -30 q62 -79 114 -165 l-66 -79 ZM602 214 l-37 -63 l95 -35 q42 38 63 98 l-121 0 ZM671 358 l-21 -49 l274 0 l0 -95 l-85 0 q-25 -84 -75 -142 q80 -32 155 -71 l-74 -83 q-76 43 -168 84 q-102 -56 -297 -85 q-19 63 -45 96 q142 11 221 41 q-75 30 -144 54 q34 48 68 106 l-120 0 l0 95 l169 0 q25 56 30 70 l112 -21 ZM767 554 q87 -71 180 -110 q-41 -33 -74 -83 q-94 55 -172 135 l0 -119 l-108 0 l0 118 q-84 -93 -180 -145 q-35 52 -72 81 q101 42 183 123 l-150 0 l0 94 l85 0 q-23 57 -56 114 l87 39 q46 -74 66 -122 l-62 -31 l99 0 l0 174 l108 0 l0 -174 l91 0 l-59 29 q43 64 71 132 l101 -43 q-11 -14 -46 -63 q-27 -37 -42 -55 l106 0 l0 -94 l-156 0 Z" /><glyph glyph-name="uni6A21" unicode="&#x6a21;" d="M476 661 l-114 0 l0 95 l114 0 l0 65 l109 0 l0 -65 l113 0 l0 65 l113 0 l0 -65 l108 0 l0 -95 l-108 0 l0 -55 l-113 0 l0 55 l-113 0 l0 -55 l-109 0 l0 55 ZM307 244 q-17 44 -50 109 l0 -436 l-109 0 l0 328 q-32 -90 -72 -155 q-21 58 -56 117 q77 101 128 303 l0 25 l-105 0 l0 107 l105 0 l0 180 l109 0 l0 -180 l88 0 l0 -106 l-88 0 l0 -34 q48 -63 119 -178 l-69 -80 ZM496 350 l267 0 l0 42 l-267 0 l0 -42 ZM496 467 l267 0 l0 43 l-267 0 l0 -43 ZM753 118 q68 -80 196 -105 q-40 -36 -71 -96 q-157 44 -231 181 q-64 -130 -280 -182 q-17 48 -58 92 q166 33 221 110 l-185 0 l0 96 l222 0 q6 34 8 55 l-186 0 l0 320 l486 0 l0 -320 l-187 0 l-7 -55 l242 0 l0 -96 l-170 0 Z" /><glyph glyph-name="uni6C42" unicode="&#x6c42;" d="M889 466 q-94 -106 -184 -185 q109 -120 240 -177 q-50 -43 -86 -104 q-191 100 -316 324 l0 -266 q0 -93 -55 -119 q-48 -25 -189 -23 q-9 62 -39 121 q39 -2 139 -2 q25 0 25 24 l0 150 q-165 -107 -320 -200 l-74 105 q154 78 394 216 l0 234 l-365 0 l0 112 l365 0 l0 144 l119 0 l0 -144 l193 0 q-59 39 -131 75 l69 73 q114 -52 179 -101 l-42 -47 l106 0 l0 -112 l-374 0 l0 -12 q40 -102 98 -187 q97 99 146 172 l102 -71 ZM247 283 q-42 79 -155 184 l89 61 q117 -104 160 -176 l-94 -69 Z" /><glyph glyph-name="uni6CBF" unicode="&#x6cbf;" d="M253 599 q-54 54 -176 125 l73 76 q126 -68 182 -117 l-79 -84 ZM204 347 q-50 43 -177 117 l73 75 q124 -64 181 -109 l-77 -83 ZM48 8 q89 112 197 298 l84 -83 q-82 -151 -182 -301 l-99 86 ZM489 238 l0 -164 l268 0 l0 164 l-268 0 ZM378 345 l497 0 l0 -427 l-118 0 l0 49 l-268 0 l0 -52 l-111 0 l0 430 ZM873 475 q32 0 50 6 q4 -64 9 -90 q-16 -7 -57 -7 l-59 0 q-66 0 -91 33 q-21 30 -21 103 l0 149 l-168 0 l0 -4 q0 -224 -180 -324 q-29 51 -76 88 q144 76 144 239 l0 109 l393 0 l0 -259 q0 -43 16 -43 l40 0 Z" /><glyph glyph-name="uni6CD5" unicode="&#x6cd5;" d="M274 619 q-65 56 -181 108 l63 86 q117 -47 185 -98 l-67 -96 ZM217 362 q-62 53 -181 105 l61 86 q122 -47 185 -95 l-65 -96 ZM70 4 q98 139 183 306 l86 -78 q-79 -153 -171 -306 l-98 78 ZM827 -84 q-10 40 -34 85 q-368 -45 -405 -63 q-15 59 -40 115 q29 9 63 63 q48 71 103 207 l-183 0 l0 109 l230 0 l0 137 l-191 0 l0 110 l191 0 l0 144 l118 0 l0 -144 l198 0 l0 -110 l-198 0 l0 -137 l234 0 l0 -109 l-264 0 q-56 -126 -135 -249 l228 23 q-34 57 -65 100 l94 47 q124 -164 160 -276 l-104 -52 Z" /><glyph glyph-name="uni6CE8" unicode="&#x6ce8;" d="M271 618 q-54 44 -181 108 l64 85 q120 -52 184 -98 l-67 -95 ZM217 351 q-56 44 -180 105 l61 87 q124 -55 184 -95 l-65 -97 ZM331 229 q-85 -170 -172 -307 l-97 78 q101 145 184 306 l85 -77 ZM940 53 l0 -109 l-630 0 l0 109 l264 0 l0 198 l-196 0 l0 110 l196 0 l0 171 l-235 0 l0 110 l258 0 q-17 63 -68 148 l107 36 q56 -88 77 -150 l-95 -34 l297 0 l0 -110 l-221 0 l0 -171 l186 0 l0 -110 l-186 0 l0 -198 l246 0 Z" /><glyph glyph-name="uni6D04" unicode="&#x6d04;" d="M647 462 l-76 0 l0 -179 l76 0 l0 179 ZM736 555 l0 -366 l-251 0 l0 366 l251 0 ZM793 87 l0 567 l-367 0 l0 -567 l367 0 ZM909 763 l0 -831 l-116 0 l0 46 l-367 0 l0 -53 l-109 0 l0 304 q-67 -146 -149 -300 l-104 76 q88 138 165 306 l88 -74 l0 476 l-66 -92 q-61 54 -173 105 l64 86 q109 -48 175 -95 l0 46 l592 0 ZM206 356 q-55 44 -176 103 l60 87 q121 -52 180 -94 l-64 -96 Z" /><glyph glyph-name="uni6D4B" unicode="&#x6d4b;" d="M383 137 l-86 0 l0 634 l345 0 l0 -628 l-91 0 l0 546 l-168 0 l0 -552 ZM226 626 q-51 44 -159 104 l68 85 q106 -53 161 -96 l-70 -93 ZM188 372 q-51 42 -158 100 l65 83 q108 -51 161 -91 l-68 -92 ZM264 237 q-44 -142 -113 -311 l-104 59 q69 145 124 312 l93 -60 ZM538 119 q86 -90 124 -150 l-74 -46 q-39 68 -115 151 q-47 -104 -167 -158 q-19 40 -50 69 q104 47 141 127 q27 55 27 154 l0 370 l84 0 l0 -372 q0 -109 -31 -181 l61 36 ZM775 139 l-88 0 l0 594 l88 0 l0 -594 ZM911 807 l0 -775 q0 -74 -41 -94 q-39 -21 -148 -19 q-5 41 -29 95 q24 -1 107 -1 q20 0 20 19 l0 775 l91 0 Z" /><glyph glyph-name="uni6E90" unicode="&#x6e90;" d="M234 628 q-42 34 -157 104 l66 84 q129 -72 161 -96 l-70 -92 ZM187 372 q-31 24 -157 100 l65 82 q101 -49 162 -89 l-70 -93 ZM273 239 q-52 -144 -125 -311 l-106 62 q74 141 136 312 l95 -63 ZM586 167 q-48 -112 -111 -200 q-35 29 -91 56 q60 72 100 174 l102 -30 ZM570 317 l224 0 l0 55 l-224 0 l0 -55 ZM570 450 l224 0 l0 53 l-224 0 l0 -53 ZM732 235 l0 -210 q0 -73 -42 -92 q-39 -18 -138 -16 q-7 49 -30 99 q34 -1 85 -1 q14 0 14 13 l0 207 l-153 0 l0 350 l130 0 q17 49 23 83 l-187 0 l0 -164 q0 -404 -133 -589 q-41 36 -97 62 q118 163 118 527 l0 268 l607 0 l0 -104 l-284 0 l108 -19 l-37 -64 l185 0 l0 -350 l-169 0 ZM859 207 q77 -145 94 -185 l-106 -46 q-24 66 -88 193 l100 38 Z" /><glyph glyph-name="uni70B9" unicode="&#x70b9;" d="M706 430 l-446 0 l0 -123 l446 0 l0 123 ZM823 200 l-673 0 l0 337 l272 0 l0 285 l118 0 l0 -85 l347 0 l0 -108 l-347 0 l0 -92 l283 0 l0 -337 ZM30 -29 q74 66 121 189 l112 -27 q-49 -137 -126 -214 l-107 52 ZM420 137 q24 -107 28 -200 l-118 -15 q0 93 -19 204 l109 11 ZM615 149 q55 -113 73 -193 l-111 -29 q-18 84 -68 198 l106 24 ZM810 168 q93 -121 127 -203 l-112 -43 q-32 87 -119 209 l104 37 Z" /><glyph glyph-name="uni7403" unicode="&#x7403;" d="M931 469 q-83 -109 -160 -187 q58 -118 181 -204 q-48 -36 -70 -88 q-118 90 -184 210 l0 -154 q0 -82 -46 -107 q-40 -24 -154 -24 q-7 43 -39 111 q75 -3 107 -1 q21 0 21 20 l0 159 q-124 -121 -198 -187 l-53 81 q-114 -37 -288 -91 l-25 110 q52 13 117 32 l0 234 l-97 0 l0 105 l97 0 l0 171 l-102 0 l0 108 l308 0 l0 -108 l-98 0 l0 -171 l83 0 l0 -105 l-83 0 l0 -203 l99 30 l10 -63 q105 77 230 181 l0 232 l-223 0 l0 106 l223 0 l0 155 l111 0 l0 -155 l132 0 q-37 43 -102 91 l63 59 q72 -45 117 -97 l-56 -53 l84 0 l0 -106 l-238 0 l0 -39 q14 -75 35 -143 q65 84 98 143 l100 -52 ZM459 517 q74 -107 93 -170 l-94 -44 q-21 74 -88 175 l89 39 Z" /><glyph glyph-name="uni7406" unicode="&#x7406;&#xf9e4;" d="M368 110 q-84 -30 -317 -105 l-26 117 q57 15 119 32 l0 229 l-98 0 l0 105 l98 0 l0 171 l-107 0 l0 108 l320 0 l0 -108 l-104 0 l0 -171 l88 0 l0 -105 l-88 0 l0 -195 q64 20 96 30 l19 -108 ZM498 428 l100 0 l0 84 l-100 0 l0 -84 ZM498 603 l100 0 l0 80 l-100 0 l0 -80 ZM791 683 l-96 0 l0 -80 l96 0 l0 80 ZM791 512 l-96 0 l0 -84 l96 0 l0 84 ZM945 50 l0 -104 l-625 0 l0 104 l268 0 l0 93 l-201 0 l0 104 l201 0 l0 83 l-194 0 l0 452 l507 0 l0 -452 l-195 0 l0 -83 l206 0 l0 -104 l-206 0 l0 -93 l239 0 Z" /><glyph glyph-name="uni7470" unicode="&#x7470;" d="M364 99 q2 1 -313 -87 l-22 110 l108 26 l0 235 l-87 0 l0 105 l87 0 l0 171 l-93 0 l0 108 l296 0 l0 -108 l-96 0 l0 -171 l90 0 l0 -105 l-90 0 l0 -208 q46 11 105 28 l15 -104 ZM825 21 q19 0 25 12 q5 12 8 52 l6 -3 q-1 6 -5 22 q-118 -21 -141 -32 q-4 20 -19 57 l0 -76 q0 -21 6 -26 q6 -6 30 -6 l90 0 ZM840 167 l-23 59 q-13 -33 -31 -66 l54 7 ZM565 410 q4 23 10 70 l-87 0 l0 -70 l77 0 ZM488 565 l94 0 q1 24 3 69 l-97 0 l0 -69 ZM775 634 l-83 0 q-2 -45 -4 -69 l87 0 l0 69 ZM775 480 l-93 0 q-6 -47 -10 -70 l103 0 l0 70 ZM871 77 q38 -19 75 -27 q-8 -67 -31 -92 q-24 -24 -79 -24 l-116 0 q-73 0 -99 25 q-24 24 -24 93 l0 109 q-81 -156 -232 -239 q-28 52 -76 87 q192 96 254 308 l-164 0 l0 408 l184 0 q20 65 26 100 l128 -14 q-16 -37 -39 -86 l211 0 l0 -408 l-236 0 l-6 -29 l52 0 l0 -140 q12 6 20 25 q30 67 37 130 l79 -23 q-6 -25 -17 -51 l59 21 q42 -88 53 -149 l-59 -24 Z" /><glyph glyph-name="uni2F64" unicode="&#x2f64;&#x7528;" d="M758 308 l0 119 l-205 0 l0 -119 l205 0 ZM437 308 l0 119 l-183 0 l0 -17 q0 -48 -3 -102 l186 0 ZM254 648 l0 -113 l183 0 l0 113 l-183 0 ZM758 648 l-205 0 l0 -113 l205 0 l0 113 ZM873 52 q0 -87 -53 -110 q-44 -23 -186 -21 q-6 47 -37 111 q36 -2 136 -2 q25 0 25 23 l0 146 l-205 0 l0 -271 l-116 0 l0 271 l-198 0 q-31 -189 -122 -288 q-43 49 -92 74 q115 127 115 426 l0 346 l733 0 l0 -705 Z" /><glyph glyph-name="uni754C" unicode="&#x754c;" d="M257 470 l170 0 l0 70 l-170 0 l0 -70 ZM257 626 l170 0 l0 70 l-170 0 l0 -70 ZM714 696 l-170 0 l0 -70 l170 0 l0 70 ZM714 540 l-170 0 l0 -70 l170 0 l0 70 ZM676 377 q109 -92 266 -131 q-46 -44 -77 -99 q-89 30 -164 78 l0 -307 l-120 0 l0 342 l72 0 q-70 57 -113 117 l-100 0 q-42 -56 -117 -116 l83 0 l0 -67 q0 -204 -222 -285 q-27 48 -79 93 q181 60 181 197 l0 35 q-82 -56 -176 -90 q-30 51 -76 95 q153 44 262 138 l-154 0 l0 412 l692 0 l0 -412 l-158 0 Z" /><glyph glyph-name="uni7684" unicode="&#x7684;" d="M333 117 l0 191 l-154 0 l0 -191 l154 0 ZM333 565 l-154 0 l0 -157 l154 0 l0 157 ZM915 673 q0 -39 -1 -53 q-17 -579 -64 -639 q-32 -43 -93 -54 q-42 -6 -152 -2 q-4 58 -38 113 q62 -6 145 -6 q26 0 42 17 q37 40 52 519 l-208 0 q-38 -87 -85 -153 q-17 15 -75 54 l0 -453 l-259 0 l0 -71 l-105 0 l0 721 l109 0 q23 84 29 156 l126 -17 q-27 -80 -51 -139 l151 0 l0 -157 q83 121 131 312 l110 -25 q-12 -49 -38 -123 l274 0 ZM655 170 q-36 76 -135 224 l91 52 q105 -145 142 -216 l-98 -60 Z" /><glyph glyph-name="uni76D1" unicode="&#x76d1;" d="M617 588 q-53 -119 -109 -186 q-34 34 -93 69 q110 118 162 350 l110 -22 q-12 -51 -29 -106 l261 0 l0 -105 l-302 0 ZM703 563 q111 -82 170 -157 l-94 -67 q-48 68 -164 165 l88 59 ZM412 350 l-115 0 l0 471 l115 0 l0 -471 ZM217 377 l-111 0 l0 412 l111 0 l0 -412 ZM251 41 l86 0 l0 171 l-86 0 l0 -171 ZM443 212 l0 -171 l87 0 l0 171 l-87 0 ZM635 212 l0 -171 l87 0 l0 171 l-87 0 ZM928 41 l0 -103 l-883 0 l0 103 l99 0 l0 268 l692 0 l0 -268 l92 0 Z" /><glyph glyph-name="uni777F" unicode="&#x777f;" d="M177 518 l-110 0 l0 165 l350 0 l0 140 l115 0 l0 -43 l290 0 l0 -61 l-290 0 l0 -36 l372 0 l0 -165 l-117 0 l0 95 l-610 0 l0 -95 ZM603 322 q-58 37 -109 90 q-46 -53 -98 -90 l207 0 ZM661 19 l0 36 l-344 0 l0 -36 l344 0 ZM317 117 l344 0 l0 36 l-344 0 l0 -36 ZM661 250 l-344 0 l0 -34 l344 0 l0 34 ZM563 509 l-14 -25 q133 -132 402 -188 q-41 -37 -60 -92 q-68 18 -114 35 l0 -320 l-116 0 l0 27 l-344 0 l0 -30 l-110 0 l0 306 q-60 -23 -113 -37 q-23 53 -58 88 q294 68 414 240 l-161 0 l72 -30 q-78 -73 -198 -128 q-50 64 -67 80 q101 32 163 78 l-34 0 l0 70 l519 0 l0 -70 l-26 0 q100 -42 149 -75 l-64 -68 q-60 46 -163 90 l52 53 l-139 0 l10 -4 Z" /><glyph glyph-name="uni77B0" unicode="&#x77b0;" d="M144 664 l0 -98 l71 0 l0 98 l-71 0 ZM215 168 l0 104 l-71 0 l0 -104 l71 0 ZM144 369 l71 0 l0 100 l-71 0 l0 -100 ZM293 67 l-149 0 l0 -79 l-81 0 l0 777 l230 0 l0 -698 ZM753 550 q-5 -27 -9 -40 q14 -118 41 -221 q24 107 33 261 l-65 0 ZM518 145 l0 69 l-83 0 l0 -81 l83 12 ZM435 517 l0 -69 l83 0 l0 69 l-83 0 ZM518 367 l-83 0 l0 -72 l83 0 l0 72 ZM909 550 q-18 -257 -71 -404 q47 -99 110 -152 q-35 -30 -65 -77 q-48 48 -92 129 q-41 -75 -100 -130 q-33 40 -70 67 q77 65 124 175 q-29 85 -50 201 q-12 -29 -28 -57 q-32 39 -56 63 l0 -208 l46 7 l5 -90 l-51 -9 l0 -148 l-93 0 l0 132 l-201 -33 l-19 100 l47 4 l0 397 l-33 0 l0 96 l154 0 l35 70 l-166 0 l0 92 l218 0 l15 4 l68 -22 q-26 -65 -63 -144 l64 0 l0 -96 l-26 0 l0 -122 q65 152 85 424 l102 -15 q-10 -80 -23 -151 l164 0 l0 -103 l-30 0 Z" /><glyph glyph-name="uni786C" unicode="&#x786c;" d="M287 378 l-89 0 l0 -244 l89 0 l0 244 ZM198 33 l0 -72 l-97 0 l0 294 q-17 -24 -36 -48 q-12 76 -41 141 q83 110 126 327 l-112 0 l0 105 l346 0 l0 -105 l-127 0 q-23 -113 -51 -196 l177 0 l0 -446 l-185 0 ZM607 327 l0 61 l-85 0 l0 -61 l85 0 ZM522 469 l85 0 l0 60 l-85 0 l0 -60 ZM717 529 l0 -60 l87 0 l0 60 l-87 0 ZM804 388 l-87 0 l0 -61 l87 0 l0 61 ZM711 241 q-13 -93 -55 -160 q113 -56 291 -67 q-39 -39 -66 -101 q-182 22 -295 87 q-65 -53 -160 -85 q-33 55 -69 89 q90 20 146 61 q-54 54 -94 134 l99 22 q24 -45 61 -82 q25 44 33 102 l-182 0 l0 375 l187 0 l0 64 l-201 0 l0 103 l525 0 l0 -103 l-214 0 l0 -64 l194 0 l0 -375 l-200 0 Z" /><glyph glyph-name="uni7981" unicode="&#x7981;" d="M214 537 q-58 -77 -117 -117 q-34 52 -69 79 q86 48 155 146 l-117 0 l0 93 l148 0 l0 84 l106 0 l0 -84 l124 0 l0 -93 l-124 0 l0 -1 q69 -38 145 -89 l-60 -77 q-21 20 -85 71 l0 -127 l-106 0 l0 115 ZM166 395 l651 0 l0 -93 l-651 0 l0 93 ZM319 105 q-73 -107 -193 -179 q-46 42 -90 71 q114 57 175 142 l108 -34 ZM717 143 q127 -82 194 -153 l-99 -60 q-62 74 -187 158 l92 55 ZM60 253 l854 0 l0 -97 l-367 0 l0 -131 q0 -75 -54 -95 q-43 -15 -164 -15 q-10 42 -39 100 q79 -5 120 -2 q20 1 20 15 l0 128 l-370 0 l0 97 ZM772 645 q78 -95 169 -144 q-40 -31 -72 -79 q-54 39 -121 121 l0 -121 l-109 0 l0 126 q-64 -82 -131 -124 q-30 45 -68 78 q96 48 165 143 l-127 0 l0 93 l161 0 l0 84 l109 0 l0 -84 l159 0 l0 -93 l-135 0 Z" /><glyph glyph-name="uni79D1" unicode="&#x79d1;" d="M612 552 q-45 69 -145 146 l76 66 q112 -85 149 -140 l-80 -72 ZM586 296 q-44 63 -154 149 l74 66 q111 -78 159 -141 l-79 -74 ZM351 203 q-14 34 -58 107 l0 -394 l-111 0 l0 349 q-54 -125 -106 -192 q-15 44 -54 110 q82 93 144 260 l-131 0 l0 107 l147 0 l0 110 q-81 -12 -110 -15 q-6 38 -31 89 q186 28 312 80 l65 -95 q-52 -20 -125 -36 l0 -133 l128 0 l0 -107 l-128 0 l0 -8 q49 -48 126 -141 l-68 -91 ZM830 161 l0 -244 l-113 0 l0 224 l-294 -51 l-18 110 l312 53 l0 569 l113 0 l0 -549 l96 16 l19 -107 l-115 -21 Z" /><glyph glyph-name="uni7B2C" unicode="&#x7b2c;" d="M742 553 q-19 42 -70 112 l-39 0 q-30 -57 -76 -112 l185 0 ZM725 458 l-193 0 l0 -55 l193 0 l0 55 ZM418 308 l-158 0 l-4 -29 q-2 -19 -4 -29 l166 0 l0 58 ZM226 664 q-39 -61 -85 -111 l165 0 q-16 53 -51 111 l-29 0 ZM933 665 l-137 0 q32 -42 47 -71 l-99 -41 l96 0 l0 -245 l-308 0 l0 -58 l355 0 q-1 -28 -3 -41 q-13 -185 -46 -218 q-25 -29 -74 -34 q-46 -5 -123 -2 q-4 62 -32 105 q62 -6 99 -4 q23 0 33 9 q15 16 23 89 l-232 0 l0 -239 l-114 0 l0 189 q-124 -121 -295 -186 q-33 57 -73 92 q163 48 282 144 l-209 0 q25 111 36 249 l259 0 l0 55 l-294 0 l0 93 q-38 27 -87 49 q105 89 156 230 l105 -28 l-24 -54 l224 0 l0 -84 l-126 0 q26 -49 35 -75 l-95 -36 l231 0 q-44 30 -93 53 q93 82 133 224 l111 -26 q-8 -27 -19 -55 l258 0 l0 -84 Z" /><glyph glyph-name="uni7B51" unicode="&#x7b51;" d="M620 635 q-41 -82 -87 -133 q-35 31 -96 63 q94 97 137 261 l111 -26 q-8 -30 -22 -68 l261 0 l0 -97 l-138 0 q39 -58 53 -90 l-103 -38 q-22 55 -73 128 l-43 0 ZM216 635 q-47 -82 -97 -137 q-37 32 -97 63 q106 101 159 269 l110 -28 q-22 -58 -28 -70 l220 0 l0 -97 l-126 0 q28 -51 39 -87 l-97 -43 q-17 58 -56 130 l-27 0 ZM402 121 q-108 -27 -346 -81 l-22 109 q74 12 138 26 l0 209 l-113 0 l0 101 l341 0 l0 -101 l-116 0 l0 -187 l108 22 l10 -98 ZM601 320 q66 -68 105 -122 l0 196 l-162 0 l0 -111 l57 37 ZM845 30 q8 0 12 3 q6 4 7 17 q3 12 5 64 q36 -31 84 -45 q-3 -66 -13 -88 q-12 -27 -35 -38 q-21 -12 -55 -12 l-52 0 q-43 0 -67 25 q-25 25 -25 111 l0 72 l-65 -46 q-25 53 -98 140 q-14 -223 -180 -316 q-29 44 -80 82 q150 83 150 278 l0 218 l384 0 l0 -428 q0 -29 2 -33 q4 -4 11 -4 l15 0 Z" /><glyph glyph-name="uni7B97" unicode="&#x7b97;" d="M600 164 l0 59 l-204 0 l0 -59 l204 0 ZM278 292 l431 0 l0 36 l-431 0 l0 -36 ZM338 668 q19 -31 25 -49 l-64 -23 l211 0 q-44 26 -85 44 q20 14 33 28 l-120 0 ZM599 668 q-26 -37 -61 -72 l166 0 q-25 40 -54 72 l-51 0 ZM278 393 l431 0 l0 36 l-431 0 l0 -36 ZM278 527 l0 -34 l431 0 l0 34 l-431 0 ZM924 73 l-205 0 l0 -156 l-119 0 l0 156 l-218 0 q-47 -106 -247 -157 q-33 50 -74 84 q132 27 182 73 l-194 0 l0 91 l231 0 l0 59 l-119 0 l0 373 l97 0 q-14 35 -39 72 l-20 0 q-42 -57 -84 -95 q-38 35 -94 64 q99 76 150 193 l108 -29 l-22 -42 l215 0 l0 -76 q61 63 92 147 l110 -26 q-9 -21 -20 -45 l267 0 l0 -91 l-142 0 q24 -29 31 -43 l-65 -29 l86 0 l0 -373 l-112 0 l0 -59 l205 0 l0 -91 Z" /><glyph glyph-name="uni7BA1" unicode="&#x7ba1;" d="M209 673 q-36 -64 -79 -112 q-44 27 -100 52 q86 82 127 216 l114 -21 q-16 -41 -22 -55 l232 0 l0 -80 l-120 0 q28 -41 40 -68 l-98 -36 q-10 31 -55 104 l-39 0 ZM308 81 l0 -55 l409 0 l0 55 l-409 0 ZM308 343 l0 -51 l361 0 l0 51 l-361 0 ZM308 165 l525 0 l0 -250 l-116 0 l0 26 l-409 0 l0 -26 l-118 0 l0 511 l592 0 l0 -216 l-474 0 l0 -45 ZM513 627 q21 -32 38 -75 l352 0 l0 -169 l-119 0 l0 83 l-599 0 l0 -83 l-111 0 l0 169 l361 0 q-13 34 -25 55 l103 20 ZM922 752 l0 -79 l-134 0 q33 -45 44 -63 l-97 -44 q-14 38 -70 107 l-40 0 q-26 -46 -54 -76 q-30 20 -95 50 q65 65 97 182 l111 -20 q-9 -31 -20 -57 l258 0 Z" /><glyph glyph-name="uni7CBE" unicode="&#x7cbe;" d="M263 385 q57 -61 128 -169 l-73 -90 q-18 51 -57 123 l0 -331 l-103 0 l0 280 q-42 -116 -84 -177 q-10 32 -54 120 q69 87 124 252 l-107 0 l0 108 l121 0 l0 42 l-78 -19 q-3 95 -44 219 l75 19 q39 -105 47 -209 l0 264 l103 0 l0 -247 q27 90 43 197 l91 -19 q-55 -181 -73 -223 l-61 18 l0 -43 l92 0 l0 -107 l-92 0 l0 -10 l2 2 ZM771 137 l0 47 l-234 0 l0 -47 l234 0 ZM537 307 l0 -48 l234 0 l0 48 l-234 0 ZM879 19 q0 -69 -43 -87 q-37 -17 -140 -15 q-6 40 -30 91 q60 -3 88 -1 q17 0 17 14 l0 41 l-234 0 l0 -147 l-106 0 l0 473 l448 0 l0 -369 ZM934 511 l0 -84 l-554 0 l0 84 l215 0 l0 42 l-165 0 l0 77 l165 0 l0 39 l-188 0 l0 82 l188 0 l0 69 l109 0 l0 -69 l207 0 l0 -82 l-207 0 l0 -39 l185 0 l0 -77 l-185 0 l0 -42 l230 0 Z" /><glyph glyph-name="uni7CFB" unicode="&#x7cfb;" d="M353 169 q-90 -117 -213 -202 q-51 47 -101 77 q121 65 198 168 l116 -43 ZM549 268 l0 -226 q0 -81 -55 -104 q-44 -19 -168 -19 q-9 54 -42 113 q50 -2 126 -2 q21 1 21 16 l0 212 q-257 -21 -298 -37 q-13 53 -33 102 q45 6 137 53 q59 28 146 78 q-174 -10 -206 -24 q-9 41 -33 99 q27 4 73 37 q48 28 122 96 q-124 -8 -221 -11 q-2 41 -27 101 q430 16 671 73 l82 -95 q-138 -34 -345 -54 q-70 -69 -163 -135 l194 9 q79 55 137 105 l83 -74 q-164 -130 -366 -231 l293 20 q-31 34 -56 57 l88 46 q125 -114 190 -221 l-90 -54 q-26 42 -60 86 l-200 -16 ZM694 217 q156 -110 221 -182 l-102 -68 q-68 82 -213 187 l94 63 Z" /><glyph glyph-name="uni7EDF" unicode="&#x7edf;" d="M840 306 q-8 20 -32 69 q-375 -39 -412 -56 q-11 54 -34 111 q45 11 71 32 q27 29 105 131 l-153 0 l0 103 l216 0 q-19 61 -38 104 l109 27 q35 -68 48 -113 l-62 -18 l267 0 l0 -103 l-252 0 q-76 -104 -111 -145 l192 15 q-21 33 -45 69 l88 44 q98 -126 139 -219 l-96 -51 ZM364 350 q-6 -52 0 -101 q-258 -61 -297 -83 q-17 63 -37 107 q30 7 77 62 q20 22 68 89 q-92 -10 -114 -22 q-17 63 -41 115 q24 5 59 57 q69 102 115 258 l118 -54 q-58 -137 -141 -255 l70 6 q30 50 54 101 l100 -63 q-71 -126 -166 -246 l135 29 ZM383 82 q-163 -69 -321 -128 l-26 115 q56 15 326 110 l21 -97 ZM591 335 q-7 -175 -41 -258 q-46 -111 -168 -166 q-29 59 -70 95 q101 43 136 126 q25 60 30 203 l113 0 ZM822 29 q12 0 16 26 q5 28 6 118 q34 -27 98 -45 q-7 -113 -29 -155 q-24 -41 -79 -41 l-67 0 q-63 0 -85 29 q-22 26 -22 101 l0 274 l114 0 l0 -273 q0 -22 3 -28 q2 -6 12 -6 l33 0 Z" /><glyph glyph-name="uni7EF4" unicode="&#x7ef4;" d="M375 333 q-6 -38 -4 -96 q-272 -52 -305 -72 q-9 40 -34 96 q27 7 77 64 q19 22 74 98 q-102 -11 -125 -23 q-13 50 -36 103 q25 6 59 57 q69 98 119 265 l103 -48 q-53 -132 -143 -263 l83 5 q36 63 59 113 l90 -55 q-79 -146 -181 -270 l164 26 ZM34 68 q39 8 353 78 l11 -96 q-63 -18 -180 -48 l-163 -44 l-21 110 ZM552 85 l119 0 l0 88 l-119 0 l0 -88 ZM671 546 l-119 0 l0 -85 l119 0 l0 85 ZM671 358 l-119 0 l0 -81 l119 0 l0 81 ZM936 -22 l-384 0 l0 -63 l-108 0 l0 499 q-19 -25 -40 -49 q-20 58 -50 108 q111 135 168 345 l111 -31 q-25 -74 -54 -137 l124 0 q-21 64 -59 127 l98 40 q46 -68 69 -134 l-72 -33 l184 0 l0 -104 l-144 0 l0 -85 l122 0 l0 -103 l-122 0 l0 -81 l124 0 l0 -104 l-124 0 l0 -88 l157 0 l0 -107 Z" /><glyph glyph-name="uni2F79" unicode="&#x2f79;&#x7f51;" d="M703 131 q-17 38 -55 101 q-52 -128 -129 -211 q-41 35 -89 62 q94 88 148 254 q-61 83 -122 147 l70 64 q45 -47 83 -93 q17 82 25 161 l102 -10 q-17 -139 -48 -254 q60 -82 91 -148 l-76 -73 ZM192 114 q73 79 120 219 q-88 106 -120 142 l0 -361 ZM896 55 q0 -91 -57 -115 q-49 -23 -195 -22 q-11 61 -43 117 q49 -4 151 -4 q29 1 29 26 l0 602 l-589 0 l0 -167 l57 60 q42 -44 93 -103 q13 64 26 168 l103 -10 q-18 -135 -49 -255 q42 -52 87 -116 l-70 -81 q-18 29 -56 83 q-51 -130 -123 -208 q-26 24 -68 49 l0 -162 l-115 0 l0 852 l819 0 l0 -714 Z" /><glyph glyph-name="uni8003" unicode="&#x8003;" d="M493 550 l57 0 q62 47 93 77 l-150 0 l0 -77 ZM588 453 q-30 -22 -102 -70 l332 0 l0 -88 l-374 0 q-22 -48 -33 -72 l380 0 q-4 -32 -8 -46 q-30 -182 -77 -223 q-36 -31 -107 -34 q-58 -4 -168 0 q-2 57 -39 107 q92 -7 173 -7 q36 0 50 10 q24 18 42 100 l-416 0 q45 79 80 154 q-124 -67 -240 -111 q-14 51 -44 104 q196 67 374 176 l-343 0 l0 97 l312 0 l0 77 l-230 0 l0 94 l230 0 l0 101 l113 0 l0 -101 l195 0 l0 -51 q50 47 101 113 l90 -51 q-74 -95 -172 -182 l209 0 l0 -97 l-328 0 Z" /><glyph glyph-name="uni80B2" unicode="&#x80b2;" d="M682 150 l0 47 l-390 0 l0 -47 l390 0 ZM292 321 l0 -44 l390 0 l0 44 l-390 0 ZM799 27 q0 -77 -61 -98 q-45 -13 -204 -13 q-9 42 -39 93 q96 -6 159 -3 q28 0 28 22 l0 43 l-390 0 l0 -156 l-116 0 l0 501 l623 0 l0 -389 ZM574 615 l37 23 l-176 0 q-50 -42 -107 -82 l299 13 l-53 46 ZM917 638 l-211 0 q144 -121 173 -150 l-97 -65 q-15 16 -58 58 q-534 -31 -570 -45 q-10 40 -37 114 q23 5 66 33 q31 18 76 55 l-203 0 l0 101 l381 0 l-32 64 l115 32 l53 -96 l344 0 l0 -101 Z" /><glyph glyph-name="uni80FD" unicode="&#x80fd;" d="M341 185 l0 57 l-145 0 l0 -57 l145 0 ZM196 379 l0 -52 l145 0 l0 52 l-145 0 ZM455 33 q0 -74 -42 -95 q-34 -20 -135 -20 q-10 49 -38 102 q49 -3 85 0 q16 0 16 15 l0 65 l-145 0 l0 -183 l-107 0 l0 557 l366 0 l0 -441 ZM394 763 q89 -131 110 -213 l-105 -42 q-4 17 -16 48 q-260 -21 -297 -36 q-12 47 -38 108 q22 6 47 38 q55 73 88 159 l122 -32 q-38 -76 -103 -159 l142 9 q-14 27 -48 84 l98 36 ZM671 388 q-84 0 -113 30 q-28 29 -28 109 l0 292 l115 0 l0 -139 q113 45 175 81 l74 -83 q-88 -44 -249 -92 l0 -57 q0 -26 7 -32 q7 -7 35 -7 l105 0 q25 0 32 18 q7 17 11 81 q38 -28 101 -41 q-10 -93 -38 -127 q-27 -33 -94 -33 l-133 0 ZM799 23 q25 0 33 22 q8 20 12 94 q39 -26 101 -42 q-9 -102 -37 -138 q-29 -37 -98 -37 l-136 0 q-85 0 -114 30 q-29 30 -29 110 l0 305 l115 0 l0 -131 q115 46 182 90 l76 -84 q-96 -52 -258 -103 l0 -77 q0 -25 7 -32 q8 -7 37 -7 l109 0 Z" /><glyph glyph-name="uni8138" unicode="&#x8138;" d="M249 336 l0 120 l-73 0 l0 -23 q0 -62 -1 -97 l74 0 ZM176 678 l0 -117 l73 0 l0 117 l-73 0 ZM783 526 q-91 78 -156 154 q-61 -85 -131 -154 l287 0 ZM456 488 l-73 -59 q-7 12 -33 49 l0 -438 q0 -75 -34 -97 q-31 -21 -118 -21 q-4 54 -27 106 q27 -1 64 -1 q14 0 14 15 l0 187 l-79 0 q-14 -200 -58 -312 q-40 32 -90 49 q56 141 56 466 l0 351 l272 0 l0 -235 q163 116 252 285 l99 -36 q-5 -10 -17 -29 q113 -135 272 -218 q-33 -48 -54 -111 q-53 34 -102 74 l0 -84 l-344 0 l0 59 ZM620 137 q-6 89 -37 229 l89 13 q30 -119 42 -228 l-94 -14 ZM453 105 q-11 97 -51 232 l88 23 q44 -133 58 -229 l-95 -26 ZM908 356 q-76 -189 -135 -301 l150 0 l0 -101 l-548 0 l0 101 l303 0 q78 152 130 324 l100 -23 Z" /><glyph glyph-name="uni820D" unicode="&#x820d;" d="M637 580 q-80 51 -152 112 q-56 -48 -151 -112 l303 0 ZM683 143 l-400 0 l0 -92 l400 0 l0 92 ZM544 480 l0 -64 l334 0 l0 -101 l-334 0 l0 -71 l261 0 l0 -327 l-122 0 l0 33 l-400 0 l0 -34 l-116 0 l0 328 l257 0 l0 71 l-333 0 l0 101 l333 0 l0 64 l-174 0 l0 49 q-67 -39 -152 -77 q-30 52 -76 93 q308 115 461 291 l96 -53 l-19 -22 q158 -126 387 -197 q-52 -47 -77 -103 q-89 38 -146 68 l0 -49 l-180 0 Z" /><glyph glyph-name="uni8363" unicode="&#x8363;" d="M268 663 l-211 0 l0 102 l211 0 l0 56 l115 0 l0 -56 l202 0 l0 56 l116 0 l0 -56 l215 0 l0 -102 l-215 0 l0 -62 l-116 0 l0 62 l-202 0 l0 -62 l-115 0 l0 62 ZM782 390 l0 91 l-597 0 l0 -91 l-109 0 l0 190 l821 0 l0 -190 l-115 0 ZM610 256 q125 -139 334 -208 q-47 -40 -81 -100 q-187 76 -322 238 l0 -269 l-114 0 l0 263 q-136 -157 -322 -231 q-33 54 -78 96 q210 68 338 211 l-302 0 l0 103 l364 0 l0 101 l114 0 l0 -101 l368 0 l0 -103 l-299 0 Z" /><glyph glyph-name="uni83B7" unicode="&#x83b7;" d="M264 651 l-208 0 l0 104 l208 0 l0 67 l115 0 l0 -67 l217 0 l0 67 l116 0 l0 -67 l205 0 l0 -104 l-205 0 l0 -55 l-116 0 l0 55 l-217 0 l0 -64 l-115 0 l0 64 ZM387 532 q-28 -33 -80 -77 q59 -95 59 -251 q0 -181 -57 -243 q-22 -24 -58 -32 q-46 -10 -121 -7 q-2 57 -31 99 q73 -4 103 0 q17 1 29 16 q29 36 29 174 l0 9 q-77 -77 -163 -128 q-29 49 -67 84 q137 55 213 164 q-6 22 -22 53 q-53 -35 -122 -68 q-26 40 -69 77 q59 24 133 71 q-40 39 -84 65 l74 59 q49 -28 89 -65 q29 26 52 52 l93 -52 ZM696 317 q66 -231 237 -303 q-45 -39 -73 -95 q-142 74 -215 255 q-61 -160 -215 -260 q-32 39 -85 74 q190 124 225 329 l-191 0 l0 107 l200 0 l0 154 l107 0 l0 -154 l111 0 q-34 52 -101 110 l78 54 q78 -59 112 -114 l-69 -50 l97 0 l0 -107 l-218 0 Z" /><glyph glyph-name="uni843D" unicode="&#x843d;&#xf918;" d="M258 667 l-203 0 l0 101 l203 0 l0 53 l113 0 l0 -53 l223 0 l0 53 l113 0 l0 -53 l209 0 l0 -101 l-209 0 l0 -64 l-113 0 l0 64 l-223 0 l0 -64 l-113 0 l0 64 ZM158 620 q112 -57 167 -94 l-69 -86 q-63 44 -164 102 l66 78 ZM195 246 q-54 43 -164 106 l68 78 q110 -56 166 -98 l-70 -86 ZM49 6 q89 86 194 219 l69 -83 q-84 -113 -181 -225 l-82 89 ZM821 219 q-112 34 -198 78 q-82 -44 -185 -78 l383 0 ZM729 44 l0 88 l-258 0 l0 -88 l258 0 ZM512 477 q39 -33 107 -68 q59 36 94 68 l-201 0 ZM883 520 q-55 -84 -157 -160 q115 -43 228 -66 q-36 -33 -70 -92 q-17 4 -41 11 l0 -296 l-114 0 l0 38 l-258 0 l0 -38 l-109 0 l0 279 q-6 -1 -19 -5 l-20 -5 q-23 57 -56 92 q127 25 250 77 q-41 27 -83 60 q-45 -45 -87 -76 q-38 44 -80 69 q132 88 215 218 l110 -22 q-9 -15 -31 -44 l230 0 l19 5 l73 -45 Z" /><glyph glyph-name="uni2F8F" unicode="&#x2f8f;&#x884c;&#xfa08;" d="M906 657 l-472 0 l0 110 l472 0 l0 -110 ZM360 778 q-114 -152 -266 -257 q-38 62 -65 95 q141 90 220 206 l111 -44 ZM395 571 q-44 -74 -103 -147 l0 -510 l-115 0 l0 382 q-50 -47 -83 -74 q-47 68 -79 98 q168 117 270 293 l110 -42 ZM930 390 l-133 0 l0 -341 q0 -89 -56 -110 q-47 -20 -188 -20 q-7 58 -36 115 q55 -2 138 -2 q24 0 24 18 l0 340 l-286 0 l0 110 l537 0 l0 -110 Z" /><glyph glyph-name="uni89C6" unicode="&#x89c6;" d="M532 264 l-111 0 l0 515 l479 0 l0 -515 l-117 0 l0 416 l-251 0 l0 -416 ZM335 190 q-22 39 -66 103 l0 -376 l-110 0 l0 321 q-51 -50 -84 -74 q-16 69 -46 120 q141 94 228 272 l-203 0 l0 104 l149 0 q-31 60 -75 111 l90 49 q63 -66 88 -122 l-63 -38 l71 0 l20 5 l60 -43 q-39 -113 -101 -211 q65 -71 114 -130 l-72 -91 ZM820 13 q19 0 26 30 q6 29 8 123 q37 -28 90 -42 q-8 -117 -29 -154 q-25 -42 -96 -42 l-66 0 q-60 0 -84 22 q-26 23 -26 83 l0 118 q-77 -151 -239 -236 q-28 49 -75 84 q165 86 229 227 q44 97 44 242 l0 155 l111 0 l0 -157 q0 -108 -26 -199 l62 0 l0 -220 q0 -34 27 -34 l44 0 Z" /><glyph glyph-name="uni89E3" unicode="&#x89e3;" d="M471 239 q49 73 73 198 l-21 -10 q-19 44 -52 73 l0 -261 ZM321 24 q21 -1 44 -1 q12 0 12 13 l0 104 l-56 0 l0 -116 ZM246 224 l0 99 l-54 0 l0 -6 q0 -43 -3 -93 l57 0 ZM215 645 q-8 -19 -34 -71 l102 0 q18 42 28 71 l-96 0 ZM192 406 l54 0 l0 83 l-54 0 l0 -83 ZM321 323 l0 -99 l56 0 l0 99 l-56 0 ZM377 406 l0 83 l-56 0 l0 -83 l56 0 ZM937 80 l-145 0 l0 -163 l-109 0 l0 163 l-184 0 l0 99 l184 0 l0 87 l-92 0 q-20 -45 -40 -76 q-30 21 -80 44 l0 -200 q0 -67 -30 -87 q-27 -20 -97 -20 q-5 42 -23 84 l0 -35 l-75 0 l0 164 l-64 0 q-19 -145 -73 -227 q-35 29 -82 52 q70 108 70 352 l0 145 q-41 39 -76 62 q100 108 144 298 l103 -22 q-10 -37 -20 -68 l105 0 l16 5 l68 -43 q-23 -63 -54 -120 l88 0 l0 -62 q104 45 127 167 l-109 0 l0 94 l427 0 l-2 -37 q-7 -215 -34 -247 q-22 -26 -60 -32 q-33 -5 -98 -3 q-4 54 -26 94 q42 -4 69 -4 q18 0 27 10 q13 15 18 125 l-108 0 q-25 -166 -150 -237 l86 -18 q-4 -28 -14 -61 l59 0 l0 78 l109 0 l0 -78 l125 0 l0 -97 l-125 0 l0 -87 l145 0 l0 -99 Z" /><glyph glyph-name="uni8BA9" unicode="&#x8ba9;" d="M260 586 q-26 33 -148 153 l68 74 q120 -106 152 -142 l-72 -85 ZM377 233 q13 -54 36 -98 q-217 -179 -238 -208 q-28 41 -73 68 q74 68 74 141 l0 277 l-137 0 l0 110 l244 0 l0 -365 l94 75 ZM940 57 l0 -113 l-613 0 l0 113 l222 0 l0 757 l119 0 l0 -296 l210 0 l0 -111 l-210 0 l0 -350 l272 0 Z" /><glyph glyph-name="uni8BBE" unicode="&#x8bbe;" d="M563 683 q0 -192 -168 -269 q-30 49 -77 83 q137 58 137 189 l0 105 l348 0 l0 -211 q0 -40 15 -40 l51 0 q30 0 53 7 q5 -75 9 -96 q-17 -7 -60 -7 l-62 0 q-69 0 -94 32 q-22 29 -22 105 l0 103 l-130 0 l0 -1 ZM250 583 q-46 65 -150 157 l74 71 q115 -96 155 -148 l-79 -80 ZM347 227 q18 -60 43 -95 q-211 -180 -229 -203 q-14 49 -58 98 q48 35 48 95 l0 292 l-115 0 l0 110 l227 0 l0 -368 l84 71 ZM508 295 q42 -78 118 -140 q71 61 114 140 l-232 0 ZM886 377 q-50 -174 -167 -283 q97 -51 226 -77 q-44 -43 -71 -102 q-147 35 -251 106 q-108 -66 -266 -104 q-20 59 -52 100 q135 26 229 77 q-84 84 -134 188 l40 13 l-70 0 l0 108 l427 0 l20 5 l69 -31 Z" /><glyph glyph-name="uni8BBF" unicode="&#x8bbf;" d="M234 585 q-19 27 -142 160 l81 70 q120 -118 146 -150 l-85 -80 ZM384 247 q13 -55 34 -94 q-217 -171 -242 -210 q-22 44 -70 93 q65 49 65 109 l0 272 l-132 0 l0 110 l246 0 l0 -354 l99 74 ZM601 546 q-2 -68 -4 -104 l277 0 q0 -33 -1 -48 q-16 -377 -56 -424 q-28 -36 -78 -44 q-29 -5 -126 -3 q-4 60 -34 110 q56 -5 104 -5 q24 0 34 15 q28 28 39 292 l-168 0 q-31 -293 -177 -423 q-30 50 -80 83 q93 84 127 236 q23 104 26 315 l-126 0 l0 112 l242 0 q-15 64 -41 140 l110 29 q36 -85 48 -143 l-81 -26 l299 0 l0 -112 l-334 0 Z" /></font>
</defs>
</svg>
